EXSite.pl - Portal ze wszystkim Mamy tutaj wszystko

NIE MASZ JESZCZE KONTA? ZAREJESTRUJ SIĘ ZA DARMO!   
Przypomnij hasło X

Simpsonowie: Wersja kinowa / The Simpsons Movie (2007) PLDUB.720p.BluRay.x264-Crash / POLSKI DUBBING

Dodał: CrashRed 8 Styczeń 2012 18:40


Simpsonowie: Wersja kinowa / The Simpsons Movie (2007) PLDUB.720p.BluRay.x264-Crash / POLSKI DUBBING

Simpsonowie: Wersja kinowa / The Simpsons Movie (2007) PLDUB.720p.BluRay.x264-Crash / POLSKI DUBBING

Simpsonowie: Wersja kinowa / The Simpsons Movie (2007) PLDUB.720p.BluRay.x264-Crash / POLSKI DUBBING
http://www.filmweb.pl/Simpsonowie.Wersja.Kinowa

czas trwania: 1 godz. 27 min.
gatunek: Animacja, Familijny, Komedia, Przygodowy
premiera: 3 sierpnia 2007 (Polska) 2007-08-03 21 lipca 2007 (świat) 2007-07-21
produkcja: USA
reżyseria: David Silverman
scenariusz: Matt Groening, George Meyer

Simpsonowie to pozornie przeciętna, współczesna rodzina mieszkająca na przedmieściach ameryka?skiego miasteczka Springfield. W jej skład wchodzą: niezdarny Homer ? pracownik elektrowni atomowej, Merge ? kochająca żona oraz troskliwa matka trójki dzieciaków. Po 18 latach, czterystu odcinkach animowanego serialu i niezliczonych wyróżnieniach (m. in. 23 nagrody Emmy) Simpsonowie doczekali się pełnometrażowej wersji kinowej. W filmie Homer musi ocalić świat przed katastrofą, którą niechcący sprowokował. Musi odkręcić całą sprawę nim prezydent Schwarzenegger wyda rozkaz, aby zmieść Springfield z powierzchni Ziemi. Jak tego dokona?


Format : Matroska
File size : 3.87 GiB
Duration : 1h 26mn
Overall bit rate : 6 388 Kbps
Video
Format/Info : Advanced Video Codec
Format profile : High@L4.1
Duration : 1h 26mn
Bit rate mode : Variable
Bit rate : 6 000 Kbps
Maximum bit rate : 25.0 Mbps
Width : 1 280 pixels
Height : 534 pixels
Display aspect ratio : 2.35:1
Frame rate : 23.976 fps
Stream size : 3.56 GiB (92%)
Title : BLRYNDR
Writing library : x264 core 80 r1376kGIT 3feaec2
Audio
Format : AC-3
Duration : 1h 26mn
Bit rate : 384 Kbps
Channel(s) : 6 channels
Stream size : 238 MiB (6%)
Title : Crash-Polski



Simpsonowie: Wersja kinowa / The Simpsons Movie (2007) PLDUB.720p.BluRay.x264-Crash / POLSKI DUBBING
Uwaga! Linki nie zakodowane tylko dla zarejestrowanych użytkowników!

Nie masz konta? Zarejestruj się za darmo!
----------------
Links are not encoded only for registered users only! Plese login or register!



Użytkownik VIP

CrashRedVIP

#1 | Dodany: 8 Styczeń 2012 18:43

ok
Użytkownik VIP

spokaneUżytkownik

#2 | Dodany: 9 Styczeń 2012 15:16

A możesz dać nie zaszyfrowane linki ?? loler
Użytkownik VIP

CrashRedVIP

#3 | Dodany: 9 Styczeń 2012 15:48

spokane,
nie nie moge, a co za skomplikowane jest użycie takowych loler ? nie umiesz nie pobierzesz niestety taka prawda , a zakodowane linki obsluguje sie tak samo jak odkryte uzywaja albo jdownoadera albo przez przegladarke nie ma żadnej ronicy ale widac niektórych to przerasta
Użytkownik VIP

spokaneUżytkownik

#4 | Dodany: 9 Styczeń 2012 15:51

Wiem o chodzi z tymi linkami nie jestem amatorem tylko że chce wkleić do programu wspomagającego ściąganie np. Rapideo i nie odczytuje
Użytkownik VIP

CrashRedVIP

#5 | Dodany: 9 Styczeń 2012 15:54

spokane,
wiec pytaj a nie loluj niepotrzebnie , z tego co wiem wiekszosc programow radzi sobie z tym decrypter albo klasyczny jdownloader nie ma z tym problemow moze wato sie zastanowic wlasnie nad nimi .
Użytkownik VIP

spokaneUżytkownik

#6 | Dodany: 9 Styczeń 2012 18:29

Wielkie dzięki za linki. Pozdro thx
Użytkownik VIP

stachoomedUżytkownik

#7 | Dodany: 10 Styczeń 2012 22:55

Niestety, jeśli ktoś korzysta np. z Rapideo, to linki są bezużyteczne. Może warto by było wstawić kopię plików z niezaszyfrowanymi linkami?

Informacje

Jeżeli chcesz skomentować artykuł musisz być zarejestrowany na stronie.