EXSite.pl - Portal ze wszystkim Mamy tutaj wszystko

NIE MASZ JESZCZE KONTA? ZAREJESTRUJ SIĘ ZA DARMO!   
Przypomnij hasło X

G.I. Joe: Czas Kobry / G.I. Joe: The Rise of Cobra (2009) MULTI.PL.ENG.720p.BluRay.x264.AC3-Excellent.VT | Lektor PL

Dodał: mat_mar 9 Styczeń 2012 15:21


G.I. Joe: Czas Kobry / G.I. Joe: The Rise of Cobra (2009) 720p BluRay MULTI Lektor PL/ENG

HD

G.I. Joe: Czas Kobry / G.I. Joe: The Rise of Cobra (2009) MULTI.PL.ENG.720p.BluRay.x264.AC3-Excellent.VT | Lektor PL

Produkcja: USA
Gatunek: Akcja
Data premiery: 2009-08-07 (Polska) , 2009-08-05 (świat)
Reżyseria: Stephen Sommers
Scenariusz: Stuart Beattie , Paul Lovett
Muzyka: Alan Silvestri
Czas trwania: 118 minut


OPIS: Elitarna jednostka wojskowa znana jako G.I. JOE przemierza góry Azji środkowej, pustynie Egiptu, zatłoczone ulice Paryża, a nawet lodową pokrywę Bieguna Północnego, aby unieszkodliwić podstępnego handlarza bronią DESTRO, stawić czoła rosnącemu zagrożeniu ze strony tajemniczej organizacji KOBRA i powstrzymać ją od pogrążenia świata w chaosie. Wykonując swoje zadanie, G.I. JOE posługują się technologiami szpiegowskimi i sprzętem wojskowym najnowszej generacji.



G.I. Joe: Czas Kobry / G.I. Joe: The Rise of Cobra (2009) MULTI.PL.ENG.720p.BluRay.x264.AC3-Excellent.VT | Lektor PL

G.I.Joe.The.Rise.Of.Cobra.2009.MULTi.720p.BluRay.x264.AC3-Excellent.VT

MOViE iNFORMATiON :

Release Date .................: 06.01.2012
Source V/A ...................: BD9
Ripper by ...................: Mikers

Language......................: English | Polish
Subtitles ....................: Polish

Video Codec/Bitrate ..........: V_MPEG4/ISO/AVC | 5467 Kbps
Video Resolution .............: 1280*720
Frame Rate ...................: 23.976 fps

Audio Codec/Channels/Bitrate .: AC3 | 6ch | 640 Kbps

Size..........................: 5,56 GB
Runtime ......................: 1:57:59



.:: DOWNLOAD ::.

# DOWNLOAD LINK'S - 400MB PART'S #
Uwaga! Linki nie zakodowane tylko dla zarejestrowanych użytkowników!

Nie masz konta? Zarejestruj się za darmo!
----------------
Links are not encoded only for registered users only! Plese login or register!


No pass

Użytkownik VIP

mat_marVIP

#1 | Dodany: 9 Styczeń 2012 15:21

zapraszam;)
NAJWI?KSZY ZBI?R FILM?W FULL DVD | HD

<<KLIK>>


Użytkownik VIP

CrashRedVIP

#2 | Dodany: 9 Styczeń 2012 15:51

Format : Matroska
File size : 5.68 GiB
Duration : 1h 57mn
Overall bit rate : 6 891 Kbps
Video
ID : 1
Format/Info : Advanced Video Codec
Format profile : High@L4.1
Codec ID : V_MPEG4/ISO/AVC
Duration : 1h 57mn
Bit rate : 6 440 Kbps
Width : 1 280 pixels
Height : 536 pixels
Display aspect ratio : 2.35:1
Frame rate : 23.976 fps
Stream size : 5.20 GiB (92%)
Writing library : x264 core 77 r1281M 39f6499
Language : English
Audio
Format : AC-3
Duration : 1h 57mn
Bit rate mode : Constant
Bit rate : 448 Kbps
Channel(s) : 6 channels
Stream size : 378 MiB (7%)
Title : Crash-Polski
Language : Polish



G.I. Joe: Czas Kobry / G.I. Joe: The Rise of Cobra (2009) PL.720p.BluRay.x264-Crash / POLSKI LEKTOR
Uwaga! Linki nie zakodowane tylko dla zarejestrowanych użytkowników!

Nie masz konta? Zarejestruj się za darmo!
----------------
Links are not encoded only for registered users only! Plese login or register!




Format : Matroska
File size : 10.1 GiB
Duration : 1h 57mn
Overall bit rate : 12.2 Mbps
Video
ID : 1
Format : AVC
Format/Info : Advanced Video Codec
Format profile : High@L4.1
Duration : 1h 57mn
Bit rate : 11.8 Mbps
Width : 1 920 pixels
Height : 800 pixels
Display aspect ratio : 2.40:1
Frame rate : 23.976 fps

Stream size : 9.49 GiB (94%)
Writing library : x264 core 77 r1292 e381f6d
Language : English
Audio
Format : AC-3
Duration : 1h 57mn
Bit rate mode : Constant
Bit rate : 448 Kbps
Channel(s) : 6 channels
Stream size : 378 MiB (4%)
Title : Crash-Polski
Language : Polish




G.I. Joe: Czas Kobry / G.I. Joe: The Rise of Cobra (2009) PL.1080p.BluRay.x264-Crash / POLSKI LEKTOR
Uwaga! Linki nie zakodowane tylko dla zarejestrowanych użytkowników!

Nie masz konta? Zarejestruj się za darmo!
----------------
Links are not encoded only for registered users only! Plese login or register!
Użytkownik VIP

path13Użytkownik

#3 | Dodany: 9 Styczeń 2012 18:25

a ma ktoś ne DVD ?
Użytkownik VIP

MarrakechVIP

#4 | Dodany: 10 Styczeń 2012 11:40



G I Joe: Czas Kobry / G I Joe The Rise Of Cobra (2009) MULTi.720p.BluRay.x264.AC3-Excellent.VT
Release Date .................: 06.01.2012
Source V/A ...................: BD9
Ripper by ...................: Mikers

Language......................: English | Polish
Subtitles ....................: Polish

Video Codec/Bitrate ..........: V_MPEG4/ISO/AVC | 5467 Kbps
Video Resolution .............: 1280*720
Frame Rate ...................: 23.976 fps

Audio Codec/Channels/Bitrate .: AC3 | 6ch | 640 Kbps

Size..........................: 5,56 GB
Runtime ......................: 1:57:59

Waga: 5.56GB
Zawartość Uploadu: Plik .mkv
Wersja Językowa: LEKTOR PL
Dane Naprawcze: 2%
Hasło: Brak

###LiNKi###

można pobierać zamiennie z serwerów

Uwaga! Linki nie zakodowane tylko dla zarejestrowanych użytkowników!

Nie masz konta? Zarejestruj się za darmo!
----------------
Links are not encoded only for registered users only! Plese login or register!

Informacje

Jeżeli chcesz skomentować artykuł musisz być zarejestrowany na stronie.