EXSite.pl - Portal ze wszystkim Mamy tutaj wszystko

NIE MASZ JESZCZE KONTA? ZAREJESTRUJ SIĘ ZA DARMO!   
Przypomnij hasło X

Hitch: Najlepszy doradca przeciętnego faceta / Hitch (2005) PL.720p.BluRay.x264-Crash / POLSKI LEKTOR

Dodał: CrashRed 14 Styczeń 2012 20:36


Hitch: Najlepszy doradca przeciętnego faceta / Hitch (2005) PL.720p.BluRay.x264-Crash / POLSKI LEKTOR

Hitch: Najlepszy doradca przeciętnego faceta / Hitch (2005) PL.720p.BluRay.x264-Crash / POLSKI LEKTOR

Hitch: Najlepszy doradca przeciętnego faceta / Hitch (2005) PL.720p.BluRay.x264-Crash / POLSKI LEKTOR
http://www.filmweb.pl/Hitch

czas trwania: 1 godz. 58 min.
gatunek: Komedia rom.
premiera: 4 marca 2005 (Polska) 2005-03-04 10 lutego 2005 (świat) 2005-02-10
reżyseria: Andy Tennant
scenariusz: Jessica Bendinger, Kevin Bisch

Alex Hitchens zwany "Hitchem" (Will Smith) zarabia na życie pomagając nieśmiałym, lękliwym mężczyznom spełnić marzenia, dotyczące zdobycia wyśnionych kobiet. Jest słynny w swoim fachu, ale cały czas stara się zachować anonimowość. Podczas jednego ze spotka? z klientem wpada mu w oko śliczna Sara Melas (Eva Mendes). Miłość spada na niego jak grom z jasnego nieba i w bohaterze zachodzi istotna przemiana. Sara natomiast pozostaje nieustępliwa i za wszelką cenę próbuje zdemaskować sławnego na całym Manhattanie doradcę do spraw kłopotów sercowych. Tymczasem - ma go tuż obok.


Format : Matroska
File size : 5.70 GiB
Duration : 1h 58mn
Overall bit rate : 6 900 Kbps
Video
Format/Info : Advanced Video Codec
Format profile : High@L4.1
Duration : 1h 58mn
Bit rate : 6 449 Kbps
Width : 1 280 pixels
Height : 534 pixels
Display aspect ratio : 2.35:1
Frame rate : 23.976 fps
Stream size : 5.22 GiB (92%)
Writing library : x264 core 68 r1183M f21daff
Language : English
Audio
Format : AC-3
Duration : 1h 58mn
Bit rate mode : Constant
Bit rate : 448 Kbps
Channel(s) : 6 channels
Stream size : 379 MiB (6%)
Title : Crash-Polski
V.ESIR A HDBT



Hitch: Najlepszy doradca przeciętnego faceta / Hitch (2005) PL.720p.BluRay.x264-Crash / POLSKI LEKTOR
Uwaga! Linki nie zakodowane tylko dla zarejestrowanych użytkowników!

Nie masz konta? Zarejestruj się za darmo!
----------------
Links are not encoded only for registered users only! Plese login or register!



Użytkownik VIP

CrashRedVIP

#1 | Dodany: 14 Styczeń 2012 20:37

ok
Użytkownik VIP

dyskoteka1987Trial Uploader

#2 | Dodany: 15 Styczeń 2012 12:37

thx
Użytkownik VIP

lucas-1984Użytkownik

#3 | Dodany: 31 Styczeń 2012 00:10

Uprzejmie prosze o mirror do Wupload, lub rapidshare w 720p,
bylbym bardzo wdzieczny...
pozdrawiam
Użytkownik VIP

blazejas789Użytkownik

#4 | Dodany: 23 Wrzesień 2012 11:37

Hitch: Najlepszy doradca przeciętnego faceta / Hitch (2005) Blu-ray.1080p.MPEG-2.TrueHD.5.1 / Lektor PL


Quality: Blu-Ray
Format: BDMV
Video codec: MPEG-2
Audio codec: AC3,TrueHD

Video: 1920x1080, 23.976 fps, 16:9, MPEG-2, ~ 17568 kbps

Audio: Russian AC3 6ch, 448 kbps;
English TrueHD 5.1, ~ 1624 kbps;
Hungarian AC3 6ch, 448 kbps;
Czech AC3 6ch, 448 kbps;
Polish AC3 6ch, 448 kbps;
Thai AC3 6ch, 448 kbps;
Portuguese AC3 6ch, 448 kbps;
Spanish AC3 6ch, 448 kbps

Subtitles: Bulgarian, Chinese, Croatian, Czech, English, Estonian, Hungarian, Icelandic, Indonesian, Latvian, Lithuanian, Polish, Portuguese, Romanian, Slovenian, Spanish, Thai

Special Features:
Seamless Menu Navigation, Gag Reel, "Dance Steps Made Easy" Featurette, "The Dating Experts" Featurette, Previews: Into the Blue, Special Feature Subtitles.

ROZMIAR UPLOADU: 23.252 GB
ROZMIAR PARTA: 1950 MB
ROZMIAR OSTATNIEGO PARTA: 1283 MB
ILOśĆ PARTÓW: 12
+ 5% DANE NAPRAWCZE


EGOFILES.COM
Uwaga! Linki nie zakodowane tylko dla zarejestrowanych użytkowników!

Nie masz konta? Zarejestruj się za darmo!
----------------
Links are not encoded only for registered users only! Plese login or register!


FASTSHARE.CZ
Uwaga! Linki nie zakodowane tylko dla zarejestrowanych użytkowników!

Nie masz konta? Zarejestruj się za darmo!
----------------
Links are not encoded only for registered users only! Plese login or register!


RAPIDGATOR.NET
Uwaga! Linki nie zakodowane tylko dla zarejestrowanych użytkowników!

Nie masz konta? Zarejestruj się za darmo!
----------------
Links are not encoded only for registered users only! Plese login or register!


TURBOBIT.NET
Uwaga! Linki nie zakodowane tylko dla zarejestrowanych użytkowników!

Nie masz konta? Zarejestruj się za darmo!
----------------
Links are not encoded only for registered users only! Plese login or register!


UPLOADED.NET
Uwaga! Linki nie zakodowane tylko dla zarejestrowanych użytkowników!

Nie masz konta? Zarejestruj się za darmo!
----------------
Links are not encoded only for registered users only! Plese login or register!
! PLIKI AVI. BEZ HAS?A. BEZ WYPAKOWYWANIA !

Informacje

Jeżeli chcesz skomentować artykuł musisz być zarejestrowany na stronie.