EXSite.pl - Portal ze wszystkim Mamy tutaj wszystko

NIE MASZ JESZCZE KONTA? ZAREJESTRUJ SIĘ ZA DARMO!   
Przypomnij hasło X

Szklana pułapka 4.0 / Live Free or Die Hard (2007) PL.720p.BluRay.x264-Crash / POLSKI LEKTOR

Dodał: CrashRed 15 Styczeń 2012 15:35


Szklana pułapka 4.0 / Live Free or Die Hard (2007) PL.720p.BluRay.x264-Crash / POLSKI LEKTOR

Szklana pułapka 4.0 / Live Free or Die Hard (2007) PL.720p.BluRay.x264-Crash / POLSKI LEKTOR

Szklana pułapka 4.0 / Live Free or Die Hard (2007) PL.720p.BluRay.x264-Crash / POLSKI LEKTOR
http://www.filmweb.pl/4.Szklana.Pulapka

czas trwania: 2 godz. 10 min.
gatunek: Sensacyjny
premiera: 6 lipca 2007 (Polska) 2007-07-06 12 czerwca 2007 (świat) 2007-06-12
produkcja: USA, Wielka Brytania
reżyseria: Len Wiseman
scenariusz: Mark Bomback

Dzielny nowojorski policjant John McClane (Bruce Willis), staje przed kolejnym zadaniem. Zbliża się weekend, w który przypada narodowe ameryka?skie święto 4 lipca. Ale nowojorski policjant McClane nie ma powodów do świętowania. Właśnie pokłócił się z dorastającą córką Lucy (Mary Elizabeth Winstead) i przyjął rutynowe zadanie doprowadzenia młodego hakera, Matta Farella (Justin Long), na przesłuchanie do FBI. Jednak pozornie błaha sprawa pospolitego komputerowego przestępcy prowadzi McClane'a do
do przerażającego odkrycia. Przygotowywany jest atak na urządzenia, od których działania zależy funkcjonowanie całego kraju. Za spiskiem stoi tajemniczy Thomas Gabriel (Timothy Olyphant). Czy McClane zdoła udaremnić zamiary psychopatycznego przestępcy?


Szklana pułapka 4.0 / Live Free or Die Hard (2007) PL.720p.BluRay.x264-Crash / POLSKI LEKTOR
Szklana pułapka 4.0 / Live Free or Die Hard (2007) PL.720p.BluRay.x264-Crash / POLSKI LEKTOR

Format : Matroska
File size : 5.35 GiB
Duration : 2h 8mn
Overall bit rate : 5 950 Kbps
Movie name : Live Free or Die Hard (2007) Die Hard 4.0
Video
Format/Info : Advanced Video Codec
Format profile : High@L5.1
Duration : 2h 8mn
Bit rate : 5 755 Kbps
Width : 1 280 pixels
Height : 532 pixels
Display aspect ratio : 2.40:1
Frame rate : 23.976 fps
Bits/(Pixel*Frame) : 0.352
Stream size : 5.07 GiB (95%)
Title : esir
Writing library : x264 core 58 r763M 0949975
Language : English
Audio
Format : AC-3
Duration : 2h 8mn
Bit rate mode : Constant
Bit rate : 192 Kbps
Channel(s) : 6 channels
Stream size : 177 MiB (3%)
Title : Crash-Polski

v: esir a: dvd



Szklana pułapka 4.0 / Live Free or Die Hard (2007) PL.720p.BluRay.x264-Crash / POLSKI LEKTOR
Uwaga! Linki nie zakodowane tylko dla zarejestrowanych użytkowników!

Nie masz konta? Zarejestruj się za darmo!
----------------
Links are not encoded only for registered users only! Plese login or register!


Szklana pułapka 4.0 / Live Free or Die Hard (2007) PL.720p.BluRay.x264-Crash / POLSKI LEKTOR
Uwaga! Linki nie zakodowane tylko dla zarejestrowanych użytkowników!

Nie masz konta? Zarejestruj się za darmo!
----------------
Links are not encoded only for registered users only! Plese login or register!

Użytkownik VIP

qgrzegorzGość

#1 | Dodany: 7 Luty 2012 20:23

Szklana Pułapka 4.0 / Live Free or Die Hard (2007) PL.720p.Bluray.x264

Dane Techniczne:
General           : Live.Free.Or.Die.Hard.2007.PL.720p.Bluray.x264.mkv
Format            : Matroska at 7.290 Kb/s
Length            : 6,55 GB for 2h 8 min. 42s 176ms

Video #0          : AVC at 5.334 Kb/s
Aspect            : 1280 x 528 (2.424) at 23.976 fps

Audio #0          : AC-3 at 448 Kb/s
Infos             : 6 kanałów, 48,0 KHz
Language          : pl

Audio #1          : DTS at 1.510 Kb/s
Infos             : 6 kanałów, 48,0 KHz
Language          : en

INFO Napisy: osobny plik .srt
INFO Lektor: lektor profesjonalny
Źródło obrazu: *Blu-ray/DVD*


Opis uploadu:
Uwaga! Linki nie zakodowane tylko dla zarejestrowanych użytkowników!

Nie masz konta? Zarejestruj się za darmo!
----------------
Links are not encoded only for registered users only! Plese login or register!


HASŁO:

filmik

Martwe linki.Pisz na PW zrobie reupload.

Informacje

Jeżeli chcesz skomentować artykuł musisz być zarejestrowany na stronie.