EXSite.pl - Portal ze wszystkim Mamy tutaj wszystko

NIE MASZ JESZCZE KONTA? ZAREJESTRUJ SIĘ ZA DARMO!   
Przypomnij hasło X

Starsza pani znika / The Lady Vanishes (1938) PL.720p.BluRay.x264-Crash / POLSKI LEKTOR

Dodał: CrashRed 15 Styczeń 2012 16:01


Starsza pani znika / The Lady Vanishes (1938) PL.720p.BluRay.x264-Crash / POLSKI LEKTOR

Starsza pani znika / The Lady Vanishes (1938) PL.720p.BluRay.x264-Crash / POLSKI LEKTOR

Starsza pani znika / The Lady Vanishes (1938) PL.720p.BluRay.x264-Crash / POLSKI LEKTOR
http://www.filmweb.pl/Starsza.Pani.Znika

czas trwania: 1 godz. 36 min.
gatunek: Thriller, Szpiegowski
premiera: sierpie? 1938 (świat) 1938-08
produkcja: Wielka Brytania
reżyseria: Alfred Hitchcock
scenariusz: Sidney Gilliat, Frank Launder

Podczas podróży pociągiem znika starsza pani. Jedna z jej współpasażerek, młoda Angielka Iris Henderson, zaintrygowana tym, postanawia odnaleźć kobietę. Nie zdaje sobie sprawy, iż zdarzenie z pociągu to jedynie element pewnej skomplikowanej intrygi... Doskonały film mistrza suspensu, zrealizowany w Wielkiej Brytanii jeszcze przed karierą w Ameryce. Reżyser "Ptaków" bazował przy tworzeniu niniejszego filmu na znanej w Anglii powieści Ethel Liny White'a.


Format : Matroska
File size : 2.97 GiB
Duration : 1h 36mn
Overall bit rate : 4 412 Kbps
Video
Format/Info : Advanced Video Codec
Format profile : High@L4.1
Duration : 1h 36mn
Bit rate : 4 217 Kbps
Width : 960 pixels
Height : 720 pixels
Display aspect ratio : 4:3
Frame rate : 23.976 fps
Stream size : 2.78 GiB (94%)
Title : source-Japhson
Writing library : x264 core 119 r2106 07efeb4
Language : English
Audio
Format : AC-3
Duration : 1h 36mn
Bit rate mode : Constant
Bit rate : 192 Kbps
Channel(s) : 2 channels
Stream size : 132 MiB (4%)
Title : Crash-Polski



Starsza pani znika / The Lady Vanishes (1938) PL.720p.BluRay.x264-Crash / POLSKI LEKTOR
Uwaga! Linki nie zakodowane tylko dla zarejestrowanych użytkowników!

Nie masz konta? Zarejestruj się za darmo!
----------------
Links are not encoded only for registered users only! Plese login or register!



Użytkownik VIP

CrashRedVIP

#1 | Dodany: 15 Styczeń 2012 16:02

ok
Użytkownik VIP

dyskoteka1987Trial Uploader

#2 | Dodany: 16 Styczeń 2012 12:42

thx

Informacje

Jeżeli chcesz skomentować artykuł musisz być zarejestrowany na stronie.