EXSite.pl - Portal ze wszystkim Mamy tutaj wszystko

NIE MASZ JESZCZE KONTA? ZAREJESTRUJ SIĘ ZA DARMO!   
Przypomnij hasło X

Lustra / Mirrors (2008) MULTi.1080p.BluRay.x264-PTRG

Dodał: SkyRun 15 Styczeń 2012 16:15


Lustra / Mirrors (2008) MULTi.1080p.BluRay.x264-PTRG

Lustra / Mirrors (2008) MULTi.1080p.BluRay.x264-PTRG


..:: OPIS/INFO ::..

Historia byłego policjanta nazwiskiem Carson, który po tym jak spowodował śmierć kilku osób w trakcie strzelaniny, odchodzi ze służby i popada w alkoholizm. Po rozpadzie małże?stwa Carson postanawia wziąć się w garść i znajduje nową pracę. Jego zadaniem jest pilnowanie opuszczonego po pożarze sklepu z artykułami dla ludzi z wyższych sfer. Bohater szybko spostrzega, że na terenie gmachu oddziałuje na niego tajemnicza siła. Ma ona ścisły związek z licznymi ocalałymi w spalonym sklepie lustrami. I nie jest to bynajmniej siła którą można by nazwać przyjazną...


..:: DANE TECHNICZNE ::..

Release:Lustra / Mirrors (2008) MULTi.1080p.BluRay.x264-PTRG
Waga: 8gB
Archiwum: RAR
Zawartość: Plik Wideo
Dane naprawcze: 1%
-------------------------
Video: 1920x800, 23.976 fps, x264 , 8000 Kbps
Audio: EN&PL: CBR 1510 Kbps DTS 48000Hz 6ch
Commentary: CBR 224 Kbps AC-3 48000Hz 2ch
Language: Polish, English
Subs: Polish, English


..:: DOWNLOAD ::..


Uwaga! Linki nie zakodowane tylko dla zarejestrowanych użytkowników!

Nie masz konta? Zarejestruj się za darmo!
----------------
Links are not encoded only for registered users only! Plese login or register!


Oczywiście Bez Hasła ;)


Użytkownik VIP

SkyRunUżytkownik

#1 | Dodany: 15 Styczeń 2012 16:16

ok
Użytkownik VIP

keruletUżytkownik

#2 | Dodany: 15 Styczeń 2012 20:46

mam nadzieje, ze na serwerze uploaded.to upchniecie tego filmu sie nie zakonczy, bo inaczej to bylby chyba jakis kiepski zart...
Użytkownik VIP

jaku1978VIP

#3 | Dodany: 15 Styczeń 2012 20:54

Mirrors UNRATED 2008 MULTi 1080p BluRay x264 PTRG / LEKTOR PL

## PARTY 1 GB ##

Uwaga! Linki nie zakodowane tylko dla zarejestrowanych użytkowników!

Nie masz konta? Zarejestruj się za darmo!
----------------
Links are not encoded only for registered users only! Plese login or register!



###NOTES###
Mój upload |*| My Upload
Bez hasła ! ! !|*| No password
Można pobierać na przemian |*| All links are interchangeable

Użytkownik VIP

SkyRunUżytkownik

#4 | Dodany: 15 Styczeń 2012 21:01

kerulet,
Jutro zrobię reup na 5 serwerów ok
Użytkownik VIP

Rafael90Użytkownik

#5 | Dodany: 30 Styczeń 2012 17:46

SkyRun i co z tym reupem? ;>
Użytkownik VIP

nicpekUżytkownik

#6 | Dodany: 3 Kwiecień 2012 14:08

Lustra - Mirrors *2008* [DVDRip.XviD-miguel] [Lektor PL]

produkcji: USA, Rumunia, Niemcy
typ.: Horror, Thriller
Data premiery.: 14.08.2008 [świat]
Reżyser: Alexandre Aja
Scenarzysta.: Alexandre Aja, Gregory Levasseur
długość: 107 min.
More.: http://www.imdb.com/title/tt0790686
Trailer.: http://www.imdb.com/video/imdb/vi1518141721
Trailer.: http://www.youtube.com/watch?v-O92QxxgeCO8

Opis:
Drugi, po "Wzgórza mają oczy", hollywoodzki film Alexandre Aja. Historia byłego policjanta nazwiskiem Carson, który po tym jak spowodował śmierć kilku osób w trakcie strzelaniny, odchodzi ze służby i popada w alkoholizm. Po rozpadzie małże?stwa Carson postanawia wziąć się w garść i znajduje nową pracę. Jego zadaniem jest pilnowanie opuszczonego po pożarze sklepu z artykułami dla ludzi z wyższych sfer. Bohater szybko spostrzega, że na terenie gmachu oddziałuje na niego tajemnicza siła. Ma ona ścisły związek z licznymi ocalałymi w spalonym sklepie lustrami. I nie jest to bynajmniej siła którą można by nazwać przyjazną

Aktorzy:
Kiefer Sutherland Ben Carson
Paula Patton Amy Carson
Cameron Boyce Michael Carson
Erica Gluck Daisy Carson
Amy Smart Angela Carson
Mary Beth Peil Anna Esseker
John Shrapnel Lorenzo Sapelli
Jason Flemyng Det. Larry Byrne
Tim Ahern Dr. Morris
Julian Glover Robert Esseker
Josh Cole Gary Lewis
Ezra Buzzington Terrence Berry
Aida Doina Rosa (as Doina Aida Stan)
Ioana Abur Front Desk Sister
Darren Kent Jimmy Esseker


Technikalia:
!!! SAMPLE !!!
Audio: Lektor Polski
Napisy.: Brak
Format: AVI
Format/Info: Audio Video Interleave
File size: 696 MiB
Duration: 1h 46mn
Overall bit rate: 911 Kbps
Writing application: VirtualDubMod 1.5.10.2 (build 2542/release)
Writing library: VirtualDubMod build 2542/release
Video
ID: 0
Format: MPEG-4 Visual
Format profile: Advanced Simple@L5
Format settings, BVOP: Yes
Format settings, QPel: No
Format settings, GMC: No warppoints
Format settings, Matrix: Default (H.263)
Muxing mode: Packed bitstream
Codec ID: XVID
Codec ID/Hint: XviD
Duration: 1h 46mn
Bit rate: 771 Kbps
Width: 640 pixels
Height: 272 pixels
Display aspect ratio: 2.35:1
Frame rate: 25.k klatek na sekundę
Color space: YUV
Chroma subsampling: 4:2:0
Bit depth: 8 bits
Scan type: Progressive
Bits/(Pixel*Frame): 0.177
Stream size: 589 MiB (85%)
Writing library: XviD 1.2.0.dev47 (UTC 2006-11-01)
Audio
ID: 1
Format: MPEG Audio
Format version: Version 1
Format profile: Layer 3
Mode: Joint stereo
Mode extension: MS Stereo
Codec ID: 55
Codec ID/Hint: MP3
Duration: 1h 46mn
Bit rate mode: Variable
Bit rate: 128 Kbps
Channel(s): 2 kanały
Sampling rate: 48.0 KHz
Stream size: 97.4 MiB (14%)
Alignment: Aligned on interleaves
Interleave, duration: 24 ms (0.60 video frame)
Interleave, preload duration: 144 ms
Writing library: LAME3.90.
Encoding settings: -m j -V 4 -q 2 -lowpass 17.6 --abr 128


http://download.hellshare.pl/mirrors-2008-dvdrip-xvid-miguel-lektor-pl-avi/6492408/

http://turbobit.net/ijb76oo883kt.html

http://www.fastshare.cz/1395353/mirrors-2008-dvdrip.xvid-miguel-lektor-pl-.avi?




Hasło:
Bez Hasła
Pobierając m?j upload masz 100% pewności, ?e wszystko jest w porządku.
Ka?dy m?j upload zawiera 10% danych naprawczych dzi?ki czemu nie doświadczysz b??d?w CRC podczas wypakowywania archiwum.
Pozdrawiam i ?ycz? wysokich transfer?w

Informacje

Jeżeli chcesz skomentować artykuł musisz być zarejestrowany na stronie.