EXSite.pl - Portal ze wszystkim Mamy tutaj wszystko

NIE MASZ JESZCZE KONTA? ZAREJESTRUJ SIĘ ZA DARMO!   
Przypomnij hasło X

Pan życia i śmierci / Lord of War (2005) PL.720p.BluRay.x264-Crash / POLSKI LEKTOR

Dodał: CrashRed 15 Styczeń 2012 17:33


Pan życia i śmierci / Lord of War (2005) PL.720p.BluRay.x264-Crash / POLSKI LEKTOR

Pan życia i śmierci / Lord of War (2005) PL.720p.BluRay.x264-Crash / POLSKI LEKTOR

Pan życia i śmierci / Lord of War (2005) PL.720p.BluRay.x264-Crash / POLSKI LEKTOR
http://www.filmweb.pl/Pan.Zycia.I.Smierci

czas trwania: 2 godz. 2 min.
gatunek: Dramat
premiera: 4 listopada 2005 (Polska) 2005-11-04 16 września 2005 (świat) 2005-09-16
produkcja: Francja, Niemcy, USA
reżyseria: Andrew Niccol
scenariusz: Andrew Niccol

Jedna bro? przypada na 12 ludzi na planecie. Pytanie tylko... Jak uzbroić pozostałych 11?" To jedyne zmartwienie pana życia i śmierci. Jurij Orłow (Nicolas Cage) jest handlarzem bronią, który krok po kroku wspina się na "zbrojny Olimp". Nie interesuje go komu sprzedaje, często obu stronom konfliktu. Ostatnio największe zyski czerpie współpracując z krwawymi dyktaturami w Afryce... W rozkręcaniu biznesu pomaga mu brat (Jared Leto). Przychodzi jednak taki moment, w którym Jurij musi dokonać
wyboru: rodzina (urodziwa żona i synek) albo styl życia do którego przywykł: często pełnego ryzyka i stresu, lecz również na bardzo wysokim poziomie, w otoczeniu pięknych kobiet. Wybór nie jest prosty, tym bardziej, że za każdy trzeba ponieść wysoką cenę...


Format : Matroska
File size : 5.86 GiB
Duration : 2h 1mn
Overall bit rate : 6 896 Kbps
Video
Format/Info : Advanced Video Codec
Format profile : High@L4.1
Duration : 2h 1mn
Bit rate : 6 311 Kbps
Width : 1 280 pixels
Height : 534 pixels
Display aspect ratio : 2.35:1
Frame rate : 23.976 fps
Bits/(Pixel*Frame) : 0.385
Stream size : 5.37 GiB (92%)
Title : Lord of War (2005) CRiSC
Writing library : x264 core 114 r1913 5fd3dce
Language : English
Audio
Format : AC-3
Codec ID : A_AC3
Duration : 2h 1mn
Bit rate mode : Constant
Bit rate : 448 Kbps
Channel(s) : 6 channels
Stream size : 390 MiB (6%)
Title : Crash-Polski



Pan życia i śmierci / Lord of War (2005) PL.720p.BluRay.x264-Crash / POLSKI LEKTOR
Uwaga! Linki nie zakodowane tylko dla zarejestrowanych użytkowników!

Nie masz konta? Zarejestruj się za darmo!
----------------
Links are not encoded only for registered users only! Plese login or register!


Pan życia i śmierci / Lord of War (2005) PL.720p.BluRay.x264-Crash / POLSKI LEKTOR
Uwaga! Linki nie zakodowane tylko dla zarejestrowanych użytkowników!

Nie masz konta? Zarejestruj się za darmo!
----------------
Links are not encoded only for registered users only! Plese login or register!

Użytkownik VIP

CrashRedVIP

#1 | Dodany: 15 Styczeń 2012 17:33

ok
Użytkownik VIP

kartaczVIP Uploader

#2 | Dodany: 1 Październik 2012 11:34


RIP INFO:
Lord.Of.War.2005.PL.720p.BluRay.x264-LLO

Video............: 1280 x 532, AVC, 7.659 kbps
Audio............: AC3, 448 kbps, 6 kanałów
Czas trwania.....: 121 min
Język............: Polski Lektor
Rozmiar..........: 7,03 GB
Rodzaj kompresji.: .rar
Zawartość uploadu: plik .mkv
Dane naprawcze...: Brak


W partach, można pobierać naprzemiennie:

Uwaga! Linki nie zakodowane tylko dla zarejestrowanych użytkowników!

Nie masz konta? Zarejestruj się za darmo!
----------------
Links are not encoded only for registered users only! Plese login or register!


Uwaga! Linki nie zakodowane tylko dla zarejestrowanych użytkowników!

Nie masz konta? Zarejestruj się za darmo!
----------------
Links are not encoded only for registered users only! Plese login or register!

Informacje

Jeżeli chcesz skomentować artykuł musisz być zarejestrowany na stronie.