EXSite.pl - Portal ze wszystkim Mamy tutaj wszystko

NIE MASZ JESZCZE KONTA? ZAREJESTRUJ SIĘ ZA DARMO!   
Przypomnij hasło X

Oko / The Eye (2008) PL.1080p.BluRay.x264-Crash / POLSKI LEKTOR

Dodał: CrashRed 15 Styczeń 2012 18:08


Oko / The Eye (2008) PL.1080p.BluRay.x264-Crash / POLSKI LEKTOR

Oko / The Eye (2008) PL.1080p.BluRay.x264-Crash / POLSKI LEKTOR

Oko / The Eye (2008) PL.1080p.BluRay.x264-Crash / POLSKI LEKTOR

http://www.filmweb.pl/Oko

czas trwania: 1 godz. 37 min.
gatunek: Horror
premiera: 28 marca 2008 (Polska) 2008-03-28 31 stycznia 2008 (świat) 2008-01-31
produkcja: Kanada, USA
reżyseria: David Moreau, Xavier Palud
scenariusz: Sebastian Gutierrez

"The Eye" to remake produkcji z Hong Kongu o nazwie "Jian gui". Film opowiada o kobiecie, która jest niewidoma. Bohaterka przechodzi skomplikowaną operację rogówki oka. Operacja udaje się i kobieta odzyskuje wzrok, ale nie tylko. Zyskuje też zdolność dostrzegania zmarłych i jasnowidzenia.


Format : Matroska
File size : 7.23 GiB
Duration : 1h 36mn
Overall bit rate : 10.7 Mbps
Video
Format : AVC
Format/Info : Advanced Video Codec
Format profile : High@L5.1
Duration : 1h 36mn
Bit rate : 10.3 Mbps
Width : 1 920 pixels
Height : 816 pixels
Display aspect ratio : 2.35:1
Frame rate : 23.976 fps
Stream size : 6.78 GiB (94%)
Title : 1920x816 @ 10265 Kbps CtrlHD
Writing library : x264 core 59 r861M 7331ea4
Language : English
Audio
Format : AC-3
Duration : 1h 36mn
Bit rate mode : Constant
Bit rate : 448 Kbps
Channel(s) : 6 channels
Stream size : 309 MiB (4%)
Title : crash-Polski



Oko / The Eye (2008) PL.1080p.BluRay.x264-Crash / POLSKI LEKTOR
Uwaga! Linki nie zakodowane tylko dla zarejestrowanych użytkowników!

Nie masz konta? Zarejestruj się za darmo!
----------------
Links are not encoded only for registered users only! Plese login or register!


Oko / The Eye (2008) PL.1080p.BluRay.x264-Crash / POLSKI LEKTOR
Uwaga! Linki nie zakodowane tylko dla zarejestrowanych użytkowników!

Nie masz konta? Zarejestruj się za darmo!
----------------
Links are not encoded only for registered users only! Plese login or register!

Użytkownik VIP

CrashRedVIP

#1 | Dodany: 15 Styczeń 2012 18:17

ok
Użytkownik VIP

dyskoteka1987Trial Uploader

#2 | Dodany: 16 Styczeń 2012 12:31

thx

Informacje

Jeżeli chcesz skomentować artykuł musisz być zarejestrowany na stronie.