EXSite.pl - Portal ze wszystkim Mamy tutaj wszystko

NIE MASZ JESZCZE KONTA? ZAREJESTRUJ SIĘ ZA DARMO!   
Przypomnij hasło X

Szał / Frenzy (1972) PL.720p.HDTV.x264-Destiny / POLSKI LEKTOR

Dodał: CrashRed 15 Styczeń 2012 18:36


Szał / Frenzy (1972) PL.720p.HDTV.x264-Destiny / POLSKI LEKTOR

Szał / Frenzy (1972) PL.720p.HDTV.x264-Destiny / POLSKI LEKTOR

Szał / Frenzy (1972) PL.720p.HDTV.x264-Destiny / POLSKI LEKTOR

http://www.filmweb.pl/Szal

czas trwania: 1 godz. 56 min.
gatunek: Kryminał, Thriller
premiera: 31 grudnia 1972 (Polska) 1972-12-31 maj 1972 (świat) 1972-05
produkcja: Wielka Brytania
reżyseria: Alfred Hitchcock
scenariusz: Anthony Shaffer

Z Tamizy zostaje wyłowiona kobieta uduszona krawatem. O jej zamordowanie zostaje niesłusznie posądzony Richard Blaney (Jon Finch), który teraz musi sam udowodnić swą niewinność.


Format : Matroska
File size : 3.84 GiB
Duration : 1h 55mn
Overall bit rate : 4 754 Kbps
Video
Format/Info : Advanced Video Codec
Format profile : High@L4.1
Format settings, ReFrames : 8 frames
Codec ID : V_MPEG4/ISO/AVC
Duration : 1h 55mn
Bit rate : 4 561 Kbps
Width : 1 280 pixels
Height : 716 pixels
Display aspect ratio : 16:9
Frame rate : 23.976 fps
Stream size : 3.61 GiB (94%)
Title : Frenzy (1972) HDTV 720p NaRB
Writing library : x264 core 84 r1400M 20fa784
Language : English
Audio
Format : AC-3
Duration : 1h 55mn
Bit rate mode : Constant
Bit rate : 192 Kbps
Channel(s) : 2 channels
Stream size : 159 MiB (4%)
Title : Destiny-Polski



Szał / Frenzy (1972) PL.720p.HDTV.x264-Destiny / POLSKI LEKTOR
Uwaga! Linki nie zakodowane tylko dla zarejestrowanych użytkowników!

Nie masz konta? Zarejestruj się za darmo!
----------------
Links are not encoded only for registered users only! Plese login or register!



Użytkownik VIP

CrashRedVIP

#1 | Dodany: 15 Styczeń 2012 18:37

ok
Użytkownik VIP

dyskoteka1987Trial Uploader

#2 | Dodany: 16 Styczeń 2012 12:29

thx thx thx
Użytkownik VIP

radson345Użytkownik

#3 | Dodany: 22 Luty 2012 17:29

Udało mi się ściągnąć kilka Twoich wrzut z fileserv! thx

Informacje

Jeżeli chcesz skomentować artykuł musisz być zarejestrowany na stronie.