EXSite.pl - Portal ze wszystkim Mamy tutaj wszystko

NIE MASZ JESZCZE KONTA? ZAREJESTRUJ SIĘ ZA DARMO!   
Przypomnij hasło X

Battleground / Skeleton Lake (2012) m720p.BluRay.x264-BiRD

Dodał: maaaniek2 21 Styczeń 2012 22:09


Battleground / Skeleton Lake (2012) m720p.BluRay.x264-BiRD

[1,90GB]

Battleground / Skeleton Lake (2012) m720p.BluRay.x264-BiRD

Battleground / Skeleton Lake (2012) m720p.BluRay.x264-BiRD
O FILMIE:


reżyseria: Neil Mackay
scenariusz: Neil Mackay, Sean McAulay
produkcja: Kanada
gatunek: Horror, Akcja, Thriller

Grupa kryminalistów ucieka po napadzie na bank. W wyniku nieprzewidzianych okoliczności zmuszeni są przenocować w starych kwaterach wojskowych. Rano spostrzegają, że ktoś ukradł im samochód, a wkrótce po tym zaczynają ginąć. Okazuje się, że w lesie wciąż ukrywa się weteran z wojny w Wietnamie, któremu nie podoba się obecność obcych na swoim terenie...

Battleground / Skeleton Lake (2012) m720p.BluRay.x264-BiRD

Battleground / Skeleton Lake (2012) m720p.BluRay.x264-BiRD
http://www.filmweb.pl/film/Skeleton+Lake-2012-603885

Battleground / Skeleton Lake (2012) m720p.BluRay.x264-BiRD
http://www.imdb.com/title/tt1754506/


Battleground / Skeleton Lake (2012) m720p.BluRay.x264-BiRD
DANE TECHNICZNE:



Battleground / Skeleton Lake (2012) m720p.BluRay.x264-BiRD
Archiwum RAR w partach po ~ 1gb

Archiwum testowane przed uploadem

Dodane dane naprawcze

Linki zamienne


Battleground / Skeleton Lake (2012) m720p.BluRay.x264-BiRD
DOWNLOAD:

Battleground / Skeleton Lake (2012) m720p.BluRay.x264-BiRD
Uwaga! Linki nie zakodowane tylko dla zarejestrowanych użytkowników!

Nie masz konta? Zarejestruj się za darmo!
----------------
Links are not encoded only for registered users only! Plese login or register!

Battleground / Skeleton Lake (2012) m720p.BluRay.x264-BiRD
Uwaga! Linki nie zakodowane tylko dla zarejestrowanych użytkowników!

Nie masz konta? Zarejestruj się za darmo!
----------------
Links are not encoded only for registered users only! Plese login or register!

Battleground / Skeleton Lake (2012) m720p.BluRay.x264-BiRD
Uwaga! Linki nie zakodowane tylko dla zarejestrowanych użytkowników!

Nie masz konta? Zarejestruj się za darmo!
----------------
Links are not encoded only for registered users only! Plese login or register!

Battleground / Skeleton Lake (2012) m720p.BluRay.x264-BiRD
HASŁO:

maaaniek



Martwe linki? Potrzebny reupload? Nie pisz o tym w komentarzach pod newsem tylko poinformuj mnie na PW!


Zobacz koniecznie moje newsy na EXSite.pl z filmami w HD!

Użytkownik VIP

maaaniek2VIP

#1 | Dodany: 21 Styczeń 2012 22:17

Zapraszam winked
Użytkownik VIP

unclef3st3rUżytkownik

#2 | Dodany: 29 Kwiecień 2012 13:06

Battleground (2011) PLSUBBED.DVDRip.XviD-BiDA

* Dane techniczne *
General
Format                         : AVI
Format/Info                    : Audio Video Interleave
File size                      : 701 MiB
Duration                       : 1h 25mn
Overall bit rate mode          : Variable
Overall bit rate               : 1 148 Kbps
Writing application            : VirtualDubMod 1.5.10.2 (build 2542/release)
Writing library                : VirtualDubMod build 2542/release

Video
ID                             : 0
Format                         : MPEG-4 Visual
Format profile                 : Advanced Simple@L5
Format settings, BVOP          : 2
Format settings, QPel          : No
Format settings, GMC           : No warppoints
Format settings, Matrix        : Default (H.263)
Muxing mode                    : Packed bitstream
Codec ID                       : XVID
Codec ID/Hint                  : XviD
Duration                       : 1h 25mn
Bit rate                       : 1 018 Kbps
Width                          : 720 pixels
Height                         : 304 pixels
Display aspect ratio           : 2.35:1
Frame rate                     : 25.000 fps
Color space                    : YUV
Chroma subsampling             : 4:2:0
Bit depth                      : 8 bits
Scan type                      : Progressive
Compression mode               : Lossy
Bits/(Pixel*Frame)             : 0.186
Stream size                    : 622 MiB (89%)
Writing library                : XviD 62

Audio
ID                             : 1
Format                         : MPEG Audio
Format version                 : Version 1
Format profile                 : Layer 3
Mode                           : Joint stereo
Mode extension                 : MS Stereo
Codec ID                       : 55
Codec ID/Hint                  : MP3
Duration                       : 1h 25mn
Bit rate mode                  : Variable
Bit rate                       : 117 Kbps
Channel(s)                     : 2 channels
Sampling rate                  : 48.0 KHz
Compression mode               : Lossy
Stream size                    : 71.2 MiB (10%)
Alignment                      : Aligned on interleaves
Interleave, duration           : 24 ms (0.60 video frame)
Interleave, preload duration   : 531 ms
Writing library                : LAME3.98.2
Language                       : English


* Opis uploadu *
Rozmiar: 701 MB
Wersja językowa: angielska
Napisy: wtopione w obraz
Kompresja: brak
Hasło: brak


* Download *
http://download.hellshare.pl/battleground-2011-plsubbed-dvdrip-xvid-bida-avi/6994986/

Informacje

Jeżeli chcesz skomentować artykuł musisz być zarejestrowany na stronie.