EXSite.pl - Portal ze wszystkim Mamy tutaj wszystko

NIE MASZ JESZCZE KONTA? ZAREJESTRUJ SIĘ ZA DARMO!   
Przypomnij hasło X

1920 Bitwa Warszawska (2011) 720p.BluRay.x264-OPTiMUS

Dodał: Starbuck 3 Luty 2012 09:46





1920 Bitwa Warszawska (2011) 720p.BluRay.x264-OPTiMUS


"1920 Bitwa Warszawska" to wielki fresk historyczny o jednej z najważniejszych bitew w dziejach świata. To także jedna z pierwszych w Europie i pierwsza w Polsce, pełnometrażowa produkcja zrealizowana w 3D. Za kamerą stanął Jerzy Hoffman, nominowany do Oscara mistrz wielkich widowisk historycznych. Akcja rozpoczyna się w Warszawie, w 1920 roku. Jan (Borys Szyc), poeta i kawalerzysta, po otrzymaniu rozkazu wyjazdu na front polsko-bolszewicki, oświadcza się swojej narzeczonej Oli (Natasza Urba?ska), aktorce teatru rewiowego. ślubu udziela młodym ksiądz Ignacy Skorupka (Łukasz Garlicki). Podczas walk Jan trafia do niewoli. Jego los leży w rękach czekisty Bykowskiego (Adam Ferency), który ucieleśnia okrutne oblicze bolszewickiej rewolucji. Historia znajdzie finał w wielkiej bitwie, która na zawsze odmieni nie tylko losy Jana i Oli, ale całej dwudziestowiecznej Europy. Obok bohaterów fikcyjnych na ekranie pojawiają się także postacie historyczne: marszałek Józef Piłsudski (Daniel Olbrychski), generał Tadeusz Rozwadowski (Marian Dziędziel), pułkownik Wieniawa-Długoszowski (Bogusław Linda), a także Włodzimierz Lenin i Józef Stalin. Reżyserowi udało się odtworzyć atmosferę lat 20. ukazując wielki patriotyzm i heroiczny wysiłek pokolenia naszych przodków .


1920 Bitwa Warszawska (2011) 720p.BluRay.x264-OPTiMUS





ViDEO BiTRATE : 7 034 Kbps
RUNTiME : 1:50:43
RESOLUTiON : 1280 x 720
FRAME RATE : 25.000 fps








1920 Bitwa Warszawska (2011) 720p.BluRay.x264-OPTiMUS
Uwaga! Linki nie zakodowane tylko dla zarejestrowanych użytkowników!

Nie masz konta? Zarejestruj się za darmo!
----------------
Links are not encoded only for registered users only! Plese login or register!

Zobacz inne moje newsy na EXSite.pl

Użytkownik VIP

kpt.hunterUżytkownik

#1 | Dodany: 3 Luty 2012 09:48

ok
Użytkownik VIP

wajsxyUżytkownik

#2 | Dodany: 3 Luty 2012 10:09

1920 Bitwa Warszawska (2011) PL.720p.BluRay.x264.DTS-B89

RS:
Uwaga! Linki nie zakodowane tylko dla zarejestrowanych użytkowników!

Nie masz konta? Zarejestruj się za darmo!
----------------
Links are not encoded only for registered users only! Plese login or register!
Użytkownik VIP

pablos83Użytkownik

#4 | Dodany: 3 Luty 2012 10:28

wajsxy dzięki za rapida thx
Użytkownik VIP

Merlin.MUżytkownik

#5 | Dodany: 3 Luty 2012 10:35

Dzięki za rapida ok
Użytkownik VIP

djfiraUżytkownik

#6 | Dodany: 3 Luty 2012 10:43

RS thx
Użytkownik VIP

phone75Użytkownik

#7 | Dodany: 3 Luty 2012 10:57

w ko?cu up na rapida :) thx
Użytkownik VIP

ivoivanUżytkownik

#8 | Dodany: 3 Luty 2012 11:35

opinia z fillmwebu - Tragikomiczna żenada
bumbaburumba
Użytkownik VIP

piramida1Użytkownik

#9 | Dodany: 3 Luty 2012 13:10

opinia z fillmwebu - Tragikomiczna żenada
ALE DZI?KI ZA RAPIDA nareszcie ktoś z głową .
Użytkownik VIP

rafsob78Użytkownik

#10 | Dodany: 3 Luty 2012 13:15

Niby dobre są tylko sceny balistyczne.
Użytkownik VIP

sebeqUżytkownik

#11 | Dodany: 3 Luty 2012 14:06

Wszystko ładnie piknie. 720p i linki rs. Tylko ja sie pytam dlaczego rosyjskie dialogi, których w filmie jest cała masa nie są przetłumaczone (choćby subtitles)??? Czyżby w wersji DVD i BD nie ma napisów kiedy ruskie gadają??? thx
Użytkownik VIP

LordWarezUżytkownik

#12 | Dodany: 3 Luty 2012 14:10

Cytat: sebeq
Wszystko ładnie piknie. 720p i linki rs. Tylko ja sie pytam dlaczego rosyjskie dialogi, których w filmie jest cała masa nie są przetłumaczone (choćby subtitles)??? Czyżby w wersji DVD i BD nie ma napisów kiedy ruskie gadają???



w tym relku jest wszytko, napisy PL forced też są
Użytkownik VIP

tita42Użytkownik

#13 | Dodany: 3 Luty 2012 16:26

Ja tez dziekuje za rapida ale napisow chyba jednak nie ma.
Użytkownik VIP

sebeqUżytkownik

#14 | Dodany: 3 Luty 2012 17:14

NAPISY NA NAPI DO POBRANIA !!!! ok
Użytkownik VIP

KLUSPEEDUżytkownik

#15 | Dodany: 13 Luty 2012 21:38

no i juz po rs:)
Użytkownik VIP

hosse6668VIP

#16 | Dodany: 21 Czerwiec 2012 23:33

1920 Bitwa Warszawska 3D OU *2011* [BDRip.1080p.Half.Over-Under.AC3.x264-LEON 345] [PL]


General

Format : Matroska
File size : 8.45 GiB
Duration : 1h 55mn
Overall bit rate : 10.5 Mbps
Writing application : Lavf51.12.1
Writing library : Lavf51.12.1

Video
ID : 1
Format : AVC
Format/Info : Advanced Video Codec
Format profile : Baseline@L4.0
Format settings, CABAC : No
Format settings, ReFrames : 1 frame
Muxing mode : Container profile=Unknown@4.0
Codec ID : V_MPEG4/ISO/AVC
Duration : 1h 55mn
Bit rate : 9 827 Kbps
Width : 1 920 pixels
Height : 1 080 pixels
Display aspect ratio : 16:9
Frame rate mode : Variable
Frame rate : 23.976 fps
Resolution : 8 bits
Colorimetry : 4:2:0
Scan type : Progressive
Bits/(Pixel*Frame) : 0.198
Stream size : 7.92 GiB (94%)

Audio
ID : 2
Format : AC-3
Format/Info : Audio Coding 3
Codec ID : A_AC3
Duration : 1h 55mn
Bit rate mode : Constant
Bit rate : 448 Kbps
Channel(s) : 6 channels
Channel positions : Front: L C R, Side: L R, LFE
Sampling rate : 48.0 KHz
Resolution : 32 bits
Stream size : 370 MiB (4%)
Language : Polish


Uwaga! Linki nie zakodowane tylko dla zarejestrowanych użytkowników!

Nie masz konta? Zarejestruj się za darmo!
----------------
Links are not encoded only for registered users only! Plese login or register!
Poradniki do GIER

Informacje

Jeżeli chcesz skomentować artykuł musisz być zarejestrowany na stronie.