EXSite.pl - Portal ze wszystkim Mamy tutaj wszystko

NIE MASZ JESZCZE KONTA? ZAREJESTRUJ SIĘ ZA DARMO!   
Przypomnij hasło X

Harold i Kumar Spalone święta / A Very Harold and Kumar Christmas EXTENDED (2011) 720p.EC.BluRay.x264.AC3-HDC

Dodał: ampatinis 6 Luty 2012 22:16


Harold i Kumar Spalone święta / A Very Harold and Kumar Christmas EXTENDED (2011) 720p.EC.BluRay.x264.AC3-HDC

Harold i Kumar Spalone święta / A Very Harold and Kumar Christmas EXTENDED (2011) 720p.EC.BluRay.x264.AC3-HDC

Harold i Kumar Spalone święta / A Very Harold and Kumar Christmas EXTENDED (2011) 720p.EC.BluRay.x264.AC3-HDC
Jak to bywa w życiu, niegdyś nierozłączni przyjaciele Harold (John Cho) i Kumar (Kal Penn) teraz żyją oddzielnie, mają rodziny i nowych przyjaciół. Właśnie przygotowują się do świąt Bożego Narodzenia, kiedy Kumar na progu swojego domu znajduje dziwną przesyłkę. Próbując ją dostarczyć do Harolda, doprowadza do spalenia nagradzanej choinki teścia Harolda. Ponieważ teściów jeszcze przez dzie? nie będzie w domu, Harold postanawia ukryć ślady wypadku, wymieniając drzewko na równie piękne. Tak Harold i Kumar wyruszają na kolejną pełną zabawnych przygód wyprawę w poszukiwaniu idealnej choinki.


Information:
Format : Matroska
Format version : Version 2
File size : 4.48 GiB
Duration : 1h 36mn
Overall bit rate : 6 670 Kbps
Encoded date : UTC 2012-01-20 19:02:42
Writing application : mkvmerge v4.0.0 ('The Stars were mine') built on Jun 6 2010 16:18:42
Writing library : libebml v1.0.0 + libmatroska v1.0.0

Video
ID : 1
Format : AVC
Format/Info : Advanced Video Codec
Format profile : High@L4.1
Format settings, CABAC : Yes
Format settings, ReFrames : 12 frames
Codec ID : V_MPEG4/ISO/AVC
Duration : 1h 36mn
Bit rate : 6 222 Kbps
Width : 1 280 pixels
Height : 532 pixels
Display aspect ratio : 2.40:1
Frame rate : 23.976 fps
Color space : YUV
Chroma subsampling : 4:2:0
Bit depth : 8 bits
Scan type : Progressive
Bits/(Pixel*Frame) : 0.381
Stream size : 4.09 GiB (91%)
Writing library : x264 core 120 r2145 748fe16

Audio
ID : 2
Format : AC-3
Format/Info : Audio Coding 3
Mode extension : CM (complete main)
Codec ID : A_AC3
Duration : 1h 36mn
Bit rate mode : Constant
Bit rate : 448 Kbps
Channel(s) : 6 channels
Channel positions : Front: L C R, Side: L R, LFE
Sampling rate : 48.0 KHz
Bit depth : 16 bits
Compression mode : Lossy
Stream size : 308 MiB (7%)
Language : English



Harold i Kumar Spalone święta / A Very Harold and Kumar Christmas EXTENDED (2011) 720p.EC.BluRay.x264.AC3-HDC
Uwaga! Linki nie zakodowane tylko dla zarejestrowanych użytkowników!

Nie masz konta? Zarejestruj się za darmo!
----------------
Links are not encoded only for registered users only! Plese login or register!



Informacje

Jeżeli chcesz skomentować artykuł musisz być zarejestrowany na stronie.