EXSite.pl - Portal ze wszystkim Mamy tutaj wszystko

NIE MASZ JESZCZE KONTA? ZAREJESTRUJ SIĘ ZA DARMO!   
Przypomnij hasło X

Kabaret moralnego niepokoju (2005-2006) 2xDVD9.PAL.PL

Dodał: ampatinis 14 Luty 2012 21:59


Kabaret moralnego niepokoju (2005-2006) 2xDVD9.PAL.PL

Kabaret moralnego niepokoju (2005-2006) 2xDVD9.PAL.PL

Kabaret moralnego niepokoju (2005-2006) 2xDVD9.PAL.PL
Info:

Tytuł oryginalny: Kabaret moralnego niepokoju

Reżyseria: Nina Terentiew, Andrzej Horubała

Rok produkcji: 2005-2006

Kategoria: kabaret

Czas: 434 min


Opis:

DVD 1

Edward Dziewo?ski ogłosił w swoim czasie, że kabaret sko?czył się na Dudku. Wobec tego my chcemy ogłosić, że kabaret ko?czy się na nas i w ogóle zachęcamy inne zespoły żeby mówiły to samo o sobie. świadectwem ko?ca światowej sztuki kabaretowej jest program, który trzymają Pa?stwo w rękach. Podjęliśmy próbę kompilacji numerów, które byłyby i śmieszne i o czymś, choć nie ukrywamy że bardzo nas również bawi wykonywanie rzeczy śmiesznych i całkowicie o niczym. Ponieważ w opinii większości Polska jest już Polską można trochę wyluzować a nawet okazać beztroską radość z odzyskanego śmietnika. Płytą z programem, zwanym przez nas "żółtym", rozpoczynamy naszą wydawniczą działalność. Chyba że Pa?stwo jej nie kupią, wtedy nie będziemy się wygłupiać i na niej poprzestaniemy nie rozmawiając między sobą o tym co się wydarzyło. Miłego odbioru, prosimy niczego nie regulować.



DVD 2

Znacie Pa?stwo skecz Max i Bożydar znany też jako Lachony? Albo Egzamin z historii? Albo Krzyżówkę? Jeśli nie, to warto obejrzeć po raz pierwszy, jeśli tak, warto sobie przypomnieć. Na tej płycie znajdziecie dwa 50-minutowe świąteczno-sylwestrowe programy, które kabaret Moralnego Niepokoju przygotował dla telewizji pod koniec 2005 roku, a które podsumowują dorobek grypy z dwóch poprzednich lat opierając się na najlepszych skeczach powstałych w ramach Tygodnika Moralnego Niepokoju. Całość prowadzi roześmiana Spikerka, od czasu do czasu pojawiają się też postaci Gwidona i Romka, dwóch bezrobotnych lumpów, którzy próbują urządzić sobie święta na swój sposób, czyli w poprzek standardów przyjętych przez resztę społecze?stwa, a przynajmniej dyrekcję parku w Łazienkach.

General

Complete name : VTS_01_1.VOB

Format : MPEG-PS

File size : 1 024 MiB

Duration : 24mn 53s

Overall bit rate : 5 749 Kbps



Video

ID : 224 (0xE0)

Format : MPEG Video

Format version : Version 2

Format profile : Main@Main

Format settings, BVOP : Yes

Format settings, Matrix : Default

Format_Settings_GOP : M=3, N=12

Duration : 24mn 53s

Bit rate mode : Variable

Bit rate : 5 073 Kbps

Nominal bit rate : 6 000 Kbps

Width : 720 pixels

Height : 576 pixels

Display aspect ratio : 4:3

Frame rate : 25.000 fps

Standard : PAL

Resolution : 8 bits

Colorimetry : 4:2:0

Scan type : Interlaced

Scan order : Top Field First

Bits/(Pixel*Frame) : 0.489

Stream size : 903 MiB (88%)



Audio #1

ID : 128 (0x80)

Format : AC-3

Format/Info : Audio Coding 3

Duration : 24mn 53s

Bit rate mode : Constant

Bit rate : 224 Kbps

Channel(s) : 2 channels

Channel positions : Front: L R

Sampling rate : 48.0 KHz

Video delay : -80ms

Stream size : 39.9 MiB (4%)



Audio #2

ID : 129 (0x81)

Format : AC-3

Format/Info : Audio Coding 3

Duration : 24mn 53s

Bit rate mode : Constant

Bit rate : 224 Kbps

Channel(s) : 2 channels

Channel positions : Front: L R

Sampling rate : 48.0 KHz

Video delay : -80ms

Stream size : 39.9 MiB (4%)



Kabaret moralnego niepokoju (2005-2006) 2xDVD9.PAL.PL
Uwaga! Linki nie zakodowane tylko dla zarejestrowanych użytkowników!

Nie masz konta? Zarejestruj się za darmo!
----------------
Links are not encoded only for registered users only! Plese login or register!



Użytkownik VIP

berni211Użytkownik

#1 | Dodany: 15 Luty 2012 21:01

Wrzuć na normalne serwery a nie na te g...

do dupy 2 tygodnie sciagania

wstawka fajna ale serwery do dupy, nie polecam

próbuję ale zajebisty transfer 9-10KB/s 100 lat ściągania, gratuluję a partów tez mozna zrobic było ze 200 - daj chłopie na normalne serwery gorszych juz chyba nie ma.
Użytkownik VIP

54michoUżytkownik

#2 | Dodany: 16 Luty 2012 17:07

Daj na rapidshare albo supershare.
Użytkownik VIP

rutra1977Użytkownik

#3 | Dodany: 16 Luty 2012 22:44

ul.to i turbobit może i nędza - pierwszy ma limity, drugi idzie jak krew z nosa. Za to netload premium śmiga aż miło, więc wielkie dzięki za netload.
Użytkownik VIP

berni211Użytkownik

#4 | Dodany: 17 Luty 2012 18:54

wszystkie te serwery do d...y. moze ktos wrzuci na normalne a koledze ampatinis powdziekujemy za ten syf.

Informacje

Jeżeli chcesz skomentować artykuł musisz być zarejestrowany na stronie.