EXSite.pl - Portal ze wszystkim Mamy tutaj wszystko

NIE MASZ JESZCZE KONTA? ZAREJESTRUJ SIĘ ZA DARMO!   
Przypomnij hasło X

Wszystkie odloty Cheyenne'a / This Must Be The Place (2011) 1080p.BluRay.x264-Rx

Dodał: niedzwiedzx 25 Luty 2012 18:15


Wszystkie odloty Cheyenne'a / This Must Be The Place (2011) 1080p.BluRay.x264-Rx


Wszystkie odloty Cheyenne'a / This Must Be The Place (2011) 1080p.BluRay.x264-Rx


"Porywający", "wyśmienity", "na przemian – prześmieszny i wzruszający" – ten film to popis genialnego aktorstwa, dwukrotnego zdobywcy Oscara – Seana Penna. Trudny do rozpoznania pod burzą kruczoczarnych włosów, z uszminkowanymi na czerwono ustami Sean Penn zachwyca rolą ekscentrycznego rockmena. Tytułowy Cheyenne za sprawą jednego wydarzenia wyruszy w wypełnioną przedziwnymi zdarzeniami podróż życia i przekona się, że największy życiowy odlot, wciąż jest jeszcze przed nim. Najnowszy film Paolo Sorrentino wzbudził olbrzymie emocje w Cannes i otrzymał jedno z najbardziej prestiżowych wyróżnie? festiwalu. Mieszanka fantastycznego humoru i gorzkiej ironii tworzy w filmie prawdziwie rockandrollowy emocjonalny koktajl.

INFO:


Hasło/Pass: niedzwiedzx

Wszystkie odloty Cheyenne'a / This Must Be The Place (2011) 1080p.BluRay.x264-Rx

Wszystkie odloty Cheyenne'a / This Must Be The Place (2011) 1080p.BluRay.x264-Rx

Uwaga! Linki nie zakodowane tylko dla zarejestrowanych użytkowników!

Nie masz konta? Zarejestruj się za darmo!
----------------
Links are not encoded only for registered users only! Plese login or register!

Wszystkie odloty Cheyenne'a / This Must Be The Place (2011) 1080p.BluRay.x264-Rx

Uwaga! Linki nie zakodowane tylko dla zarejestrowanych użytkowników!

Nie masz konta? Zarejestruj się za darmo!
----------------
Links are not encoded only for registered users only! Plese login or register!




Użytkownik VIP

niedzwiedzxVIP

#1 | Dodany: 25 Luty 2012 18:16

Wszystkie odloty Cheyenne'a / This Must Be The Place (2011) 1080p.Bluray.x264.DTS-HOPE



Information:
Format : Matroska
Format version : Version 2
File size : 4.37 GiB
Duration : 1h 58mn
Overall bit rate : 5 282 Kbps
Encoded date : UTC 2012-02-24 12:17:05
Writing application : mkvmerge v5.2.1 ('A Far Off Place') built on Jan 2 2012 23:21:10
Writing library : libebml v1.2.3 + libmatroska v1.3.0

Video
ID : 1
Format : AVC
Format/Info : Advanced Video Codec
Format profile : High@L5.1
Format settings, CABAC : Yes
Format settings, ReFrames : 6 frames
Codec ID : V_MPEG4/ISO/AVC
Duration : 1h 58mn
Bit rate : 3 772 Kbps
Width : 1 920 pixels
Height : 816 pixels
Display aspect ratio : 2.35:1
Frame rate : 23.976 fps
Color space : YUV
Chroma subsampling : 4:2:0
Bit depth : 8 bits
Scan type : Progressive
Bits/(Pixel*Frame) : 0.100
Stream size : 3.03 GiB (69%)
Writing library : x264 core 120 r2164 da19765

Audio
ID : 2
Format : DTS
Format/Info : Digital Theater Systems
Codec ID : A_DTS
Duration : 1h 58mn
Bit rate mode : Constant
Bit rate : 1 510 Kbps
Channel(s) : 6 channels
Channel positions : Front: L C R, Side: L R, LFE
Sampling rate : 48.0 KHz
Bit depth : 24 bits
Compression mode : Lossy
Stream size : 1.25 GiB (29%)
Language : English


Hasło/Pass: niedzwiedzx


Uwaga! Linki nie zakodowane tylko dla zarejestrowanych użytkowników!

Nie masz konta? Zarejestruj się za darmo!
----------------
Links are not encoded only for registered users only! Plese login or register!


Uwaga! Linki nie zakodowane tylko dla zarejestrowanych użytkowników!

Nie masz konta? Zarejestruj się za darmo!
----------------
Links are not encoded only for registered users only! Plese login or register!
Jeśli chcesz rozśmieszy? Boga, opowiedz mu o twoich planach na przysz?oś?.
Użytkownik VIP

trus_87Użytkownik

#2 | Dodany: 6 Marzec 2012 21:22

świetne napisy z translatora ...

Informacje

Jeżeli chcesz skomentować artykuł musisz być zarejestrowany na stronie.