EXSite.pl - Portal ze wszystkim Mamy tutaj wszystko

NIE MASZ JESZCZE KONTA? ZAREJESTRUJ SIĘ ZA DARMO!   
Przypomnij hasło X

Dark Tide (2012) HDRip.AC3-5.1.XviD-SiC

Dodał: manitou666 11 Marzec 2012 13:05



taniec Dark Tide (2012) HDRip.AC3-5.1.XviD-SiC taniec

Dark Tide (2012) HDRip.AC3-5.1.XviD-SiC



Dark Tide (2012) HDRip.AC3-5.1.XviD-SiC


Kraj: RPA, USA
Gatunek: Przygodowy, Thriller
Reżyseria: John Stockwell
Scenariusz: Ronnie Christensen, Amy Sorlie
Czas: 94 minuty


... ok


Halle Berry wciela się w postać Kate Mathieson, znanej podróżniczki, dokumentalistki życia rekinów i profesjonalnej instruktorki nurkowania. Po dramatycznych wydarzeniach z przeszłości i bliskim spotkaniu z żarłaczem białym, powraca na głębokie wody z niewielką grupką turystów i biologów morskich. Gdy ich statek rozbija się podczas szalejącego sztormu, Kate będzie musiała zmierzyć się ze swymi demonami i znaleźć drogę ucieczki, zanim pojawią się ogromne i mięsożerne drapieżniki.

...


INFO:
- W 1 /lub/ 4 partach tongue
- x serwerów do wyboru brawo






DANE TECHNICZNE



SCRENY


Dark Tide (2012) HDRip.AC3-5.1.XviD-SiC


LINKI:


Wersja w 4 partach (1 GB) / x SERWERÓW DO WYBORU

/ PLIKI MOŻNA POBIERAĆ NA PRZEMIAN /

--- ZAPRASZAM ---


Uwaga! Linki nie zakodowane tylko dla zarejestrowanych użytkowników!

Nie masz konta? Zarejestruj się za darmo!
----------------
Links are not encoded only for registered users only! Plese login or register!



Wersja w 1 pliku / x SERWERÓW DO WYBORU

--- ZAPRASZAM ---


Uwaga! Linki nie zakodowane tylko dla zarejestrowanych użytkowników!

Nie masz konta? Zarejestruj się za darmo!
----------------
Links are not encoded only for registered users only! Plese login or register!


HASŁO DO PLIKÓW: manitou





Jak ominąć ograniczenia na Hellshare?

METODA I: by pobierać kilka plików jednocześnie wystarczy zainstalować kilka przegladarek:
Firefox, IE, Opera, inne do wyboru. Odpalamy je i na kazdej z nich pobieramy jeden plik.

METODA II: odpalamy jedną przegladarkę, po rozpoczeciu pobierania pierwszego pliku czyścimy
w niej ciasteczka/cookie i juz mozemy pobrac kolejny plik.

>>>Mieszkasz poza krajem? Nie możesz pobierać z Hellshare? Kliknij tu! <<<


Zobacz więcej moich newsów




Dark Tide (2012) HDRip.AC3-5.1.XviD-SiC
Dark Tide (2012) HDRip.AC3-5.1.XviD-SiC
Dark Tide (2012) HDRip.AC3-5.1.XviD-SiC Dark Tide (2012) HDRip.AC3-5.1.XviD-SiC Dark Tide (2012) HDRip.AC3-5.1.XviD-SiC Dark Tide (2012) HDRip.AC3-5.1.XviD-SiC
Dark Tide (2012) HDRip.AC3-5.1.XviD-SiC
Dark Tide (2012) HDRip.AC3-5.1.XviD-SiC Dark Tide (2012) HDRip.AC3-5.1.XviD-SiC Dark Tide (2012) HDRip.AC3-5.1.XviD-SiC
Dark Tide (2012) HDRip.AC3-5.1.XviD-SiC
Dark Tide (2012) HDRip.AC3-5.1.XviD-SiC Dark Tide (2012) HDRip.AC3-5.1.XviD-SiC Dark Tide (2012) HDRip.AC3-5.1.XviD-SiC
Dark Tide (2012) HDRip.AC3-5.1.XviD-SiC
Dark Tide (2012) HDRip.AC3-5.1.XviD-SiC Dark Tide (2012) HDRip.AC3-5.1.XviD-SiC

Użytkownik VIP

ampatinisUżytkownik

#1 | Dodany: 11 Marzec 2012 22:58

Dark Tide (2012) HDRip.AC3-5.1.XviD-SiC

MediaInfo:
General
Complete name : Dark.Tide.2012.720p.HDRiP.AC3-5.1.x264-SiC.mkv
Format : Matroska
Format version : Version 2
File size : 3.60 GiB
Duration : 1h 53mn
Overall bit rate : 4 533 Kbps
Encoded date : UTC 2012-03-10 17:35:57
Writing application : mkvmerge v4.0.0 ('The Stars were mine') built on Jun 6 2010 16:18:42
Writing library : libebml v1.0.0 + libmatroska v1.0.0

Video
ID : 1
Format : AVC
Format/Info : Advanced Video Codec
Format profile : High@L4.1
Format settings, CABAC : Yes
Format settings, ReFrames : 1 frame
Format settings, GOP : M=1, N=4
Codec ID : V_MPEG4/ISO/AVC
Duration : 1h 53mn
Bit rate : 4 200 Kbps
Width : 1 280 pixels
Height : 544 pixels
Display aspect ratio : 2.35:1
Frame rate : 23.976 fps
Color space : YUV
Chroma subsampling : 4:2:0
Bit depth : 8 bits
Scan type : Progressive
Bits/(Pixel*Frame) : 0.252
Stream size : 3.23 GiB (90%)

Audio
ID : 2
Format : AC-3
Format/Info : Audio Coding 3
Mode extension : CM (complete main)
Codec ID : A_AC3
Duration : 1h 53mn
Bit rate mode : Constant
Bit rate : 384 Kbps
Channel(s) : 6 channels
Channel positions : Front: L C R, Side: L R, LFE
Sampling rate : 48.0 KHz
Bit depth : 16 bits
Compression mode : Lossy
Stream size : 313 MiB (8%)
Default : Yes
Forced : No




Uwaga! Linki nie zakodowane tylko dla zarejestrowanych użytkowników!

Nie masz konta? Zarejestruj się za darmo!
----------------
Links are not encoded only for registered users only! Plese login or register!
Użytkownik VIP

norania0Użytkownik

#2 | Dodany: 12 Marzec 2012 15:21

dzięki ok

Informacje

Jeżeli chcesz skomentować artykuł musisz być zarejestrowany na stronie.