EXSite.pl - Portal ze wszystkim Mamy tutaj wszystko

NIE MASZ JESZCZE KONTA? ZAREJESTRUJ SIĘ ZA DARMO!   
Przypomnij hasło X

Kod nieśmiertelności / Source Code (2011) PLSUB.m720p.BluRay.x264 -KarboW

Dodał: karbow 10 Maj 2012 22:40


Kod nieśmiertelności / Source Code (2011) PLSUB.m720p.BluRay.x264 -KarboW

Kod nieśmiertelności / Source Code (2011) PLSUB.m720p.BluRay.x264 -KarboW

Kod nieśmiertelności / Source Code (2011) PLSUB.m720p.BluRay.x264 -KarboW

czas trwania: 1 godz. 33 min.
gatunek: Thriller, Sci-Fi
premiera: 6 maja 2011 (Polska) 11 marca 2011 (świat)
produkcja: Francja, USA
reżyseria: Duncan Jones
scenariusz: Ben Ripley

1.92 GiB / 2 PARTY / 2 SERWERY / NO PASS

Kapitan Colter Stevens (Jake Gyllenhaal) budzi się w jadącym z dużą prędkością pociągu. Nie poznaje siedzącej obok niego dziewczyny, nie wie, gdzie jest. Po 8 minutach od jego przebudzenia pociąg eksploduje. Wtedy mężczyzna przekonuje się, że bierze udział w rządowym eksperymencie o nazwie: "Kod nieśmiertelności", który pozwala na wejście w ciało innego człowieka na ostatnich 8 minut jego życia. Zadaniem Stevensa jest rozpoznanie i powstrzymanie zagrażającego całemu Chicago terrorysty podkładającego bomby. "Kod nieśmiertelności" pozwala wracać na miejsce zdarze? wielokrotnie i żołnierz z każdym powrotem na ostatnich 8 minut życia pasażerów pociągu będzie wiedział coraz więcej. Czy uda mu się znaleźć i powstrzymać atak bombowy... który już się wydarzył?



General

Source: Source.Code.2011.1080p.BluRay.DTS.x264-CtrlHD

Format : Matroska
File size : 1.92 GiB
Duration : 1h 33mn
Overall bit rate : 2 948 Kbps

Video
Format : AVC
Format profile : High@L4.1
Bit rate : 2 500 Kbps
Width : 1 280 pixels
Height : 720 pixels
Display aspect ratio : 16:9

Audio
Format : AC-3
Bit rate : 448 Kbps
Channel(s) : 6 channels
Stream size : 299 MiB (15%)
Language : English

Text
Format : UTF-8
Codec ID : S_TEXT/UTF8
Codec ID/Info : UTF-8 Plain Text
Language : Polish










Kod nieśmiertelności / Source Code (2011) PLSUB.m720p.BluRay.x264 -KarboW
taniec

MY NETLOAD REFERRAL LINK:
http://netload.in/index.php?refer_id=209MiCw&id=5


Kup konto Premium z mojego referral link,wspierasz mnie tym.
(Buy Netload Premium Account via my referral link & support me to post more stuff for you.)


Kod nieśmiertelności / Source Code (2011) PLSUB.m720p.BluRay.x264 -KarboW

Uwaga! Linki nie zakodowane tylko dla zarejestrowanych użytkowników!

Nie masz konta? Zarejestruj się za darmo!
----------------
Links are not encoded only for registered users only! Plese login or register!




Zobacz inne moje newsy na EXSite.pl

Użytkownik VIP

luzzak24Użytkownik

#1 | Dodany: 11 Maj 2012 23:03

Kod nieśmiertelności / Source Code (2011)
PLSUB.m720p.BluRay.x264 / Napisy PL

Dane techniczne:

Format : Matroska
File size : 1.92 GiB
Duration : 1h 33mn
Overall bit rate : 2 948 Kbps
Video
Format : AVC
Format profile : High@L4.1
Bit rate : 2 500 Kbps
Width : 1 280 pixels
Height : 720 pixels
Display aspect ratio : 16:9
Audio
Format : AC-3
Bit rate : 448 Kbps
Channel(s) : 6 channels
Stream size : 299 MiB (15%)
Language : English


Download linki (3 serwisy do wyboru, można pobierać na przemian):
Uwaga! Linki nie zakodowane tylko dla zarejestrowanych użytkowników!

Nie masz konta? Zarejestruj się za darmo!
----------------
Links are not encoded only for registered users only! Plese login or register!
lub
Uwaga! Linki nie zakodowane tylko dla zarejestrowanych użytkowników!

Nie masz konta? Zarejestruj się za darmo!
----------------
Links are not encoded only for registered users only! Plese login or register!
lub
Uwaga! Linki nie zakodowane tylko dla zarejestrowanych użytkowników!

Nie masz konta? Zarejestruj się za darmo!
----------------
Links are not encoded only for registered users only! Plese login or register!


Hasło:

brak hasła

Informacje

Jeżeli chcesz skomentować artykuł musisz być zarejestrowany na stronie.