EXSite.pl - Portal ze wszystkim Mamy tutaj wszystko

NIE MASZ JESZCZE KONTA? ZAREJESTRUJ SIĘ ZA DARMO!   
Przypomnij hasło X

Safe House (2012) PL.1080p.AC3-5.1.BluRay-VoYecK.x264-CinemaMovieS | Lektor PL

Dodał: kuros90 23 Czerwiec 2012 14:12


Safe House (2012) PL.1080p.AC3-5.1.BluRay-VoYecK.x264-CinemaMovieS | Lektor PL

Safe House (2012) PL.1080p.AC3-5.1.BluRay-VoYecK.x264-CinemaMovieS | Lektor PL

OPIS
Film opowiada o młodym agencie CIA, który nadzoruje rządową kryjówkę. Kiedy kryjówka zostaje zaatakowana musi przetransportować przetrzymywanego tam przestępcę w inne miejsce.

INFORMACJE
TYTUŁ FILMU: Safe House
PRODUKCJA: USA
GATUNEK: Sensacyjny, Thriller, Akcja
CZAS TRWANIA: 114 min.
DATA PREMIERY: 24.02.2012 - Polska, 10.02.2012 - świat
REŻYSERIA: Daniel Espinosa
SCENARIUSZ: David Guggenheim
OBSADA: Denzel Washington, Ryan Reynolds, Vera Farmiga, Brendan Gleeson

DANE TECHNICZNE
NAZWA RELEASU: Safe House (2012) PL.1080p.AC3-5.1.BluRay-VoYecK.x264-CinemaMovieS | Lektor PL
PARAMETRY: Video
ID : 1
Format : AVC
Format/Info : Advanced Video Codec
Format profile : High@L4.1
Format settings, CABAC : Yes
Format settings, ReFrames : 2 frames
Muxing mode : Header stripping
Codec ID : V_MPEG4/ISO/AVC
Duration : 1h 54mn
Bit rate : 4 746 Kbps
Nominal bit rate : 5 000 Kbps
Width : 1 920 pixels
Height : 800 pixels
Display aspect ratio : 2.40:1
Frame rate mode : Variable
Frame rate : 23.976 fps
Color space : YUV
Chroma subsampling : 4:2:0
Bit depth : 8 bits
Scan type : Progressive
Bits/(Pixel*Frame) : 0.129
Stream size : 3.81 GiB (91%)
Writing library : x264 core 119 r2106

Audio
ID : 2
Format : AC-3
Format/Info : Audio Coding 3
Mode extension : CM (complete main)
Muxing mode : Header stripping
Codec ID : A_AC3
Duration : 1h 54mn
Bit rate mode : Constant
Bit rate : 384 Kbps
Channel(s) : 6 channels
Channel positions : Front: L C R, Side: L R, LFE
Sampling rate : 48.0 KHz
Bit depth : 16 bits
Compression mode : Lossy
Stream size : 316 MiB (7%)
Language : Polish
Default : Yes
Forced : No

Text
ID : 3
Format : UTF-8
Codec ID : S_TEXT/UTF8
Codec ID/Info : UTF-8 Plain Text
Default : Yes
Forced : No
DODATKOWE INFO: Lektor PL, dźwięk 5.1

SCREENY
Safe House (2012) PL.1080p.AC3-5.1.BluRay-VoYecK.x264-CinemaMovieS | Lektor PL
Safe House (2012) PL.1080p.AC3-5.1.BluRay-VoYecK.x264-CinemaMovieS | Lektor PL
Safe House (2012) PL.1080p.AC3-5.1.BluRay-VoYecK.x264-CinemaMovieS | Lektor PL

Party po 400 MB lub film niespakowany
Można pobierać przemiennie
Na wszystkich serwerach ten sam film(release)
Dane Naprawcze 5%
Bez hasła
Pojedyncze pakowanie
Archiwa zawierają sam film i nic więcej


DOWNLOAD
Uwaga! Linki nie zakodowane tylko dla zarejestrowanych użytkowników!

Nie masz konta? Zarejestruj się za darmo!
----------------
Links are not encoded only for registered users only! Plese login or register!

Użytkownik VIP

szczepan-nolUżytkownik

#1 | Dodany: 23 Czerwiec 2012 15:47

mozna prosic na UL.to


Safe House (2012) PL.1080p.AC3-5.1.BluRay-VoYecK.x264-CinemaMovieS | Lektor PL

Informacje

Jeżeli chcesz skomentować artykuł musisz być zarejestrowany na stronie.