EXSite.pl - Portal ze wszystkim Mamy tutaj wszystko

NIE MASZ JESZCZE KONTA? ZAREJESTRUJ SIĘ ZA DARMO!   
Przypomnij hasło X

A Więc Wojna / This Means War (2012) PL.UNRATED.V2.720p.AC3-5.1.BluRay-VoYecK.x264-CinemaMovieS | Lektor PL

Dodał: kuros90 27 Czerwiec 2012 11:02


A Więc Wojna / This Means War (2012) PL.UNRATED.V2.720p.AC3-5.1.BluRay-VoYecK.x264-CinemaMovieS | Lektor PL

A Więc Wojna / This Means War (2012) PL.UNRATED.V2.720p.AC3-5.1.BluRay-VoYecK.x264-CinemaMovieS | Lektor PL

OPIS
Dwaj tajni agenci zakochują się w tej samej kobiecie i rywalizując o jej względy wypowiadają sobie wojnę na śmierć i życie, korzystając z doświadcze?, które zdobyli w ciągu wielu lat wykonywania skrajnie niebezpiecznych zada?.

INFORMACJE
TYTUŁ FILMU: A Więc Wojna / This Means War
PRODUKCJA: USA
GATUNEK: Akcja, Komedia romantyczna
CZAS TRWANIA: 105 min.
DATA PREMIERY: 24.02.2012 - Polska, 17.02.2012 - świat
REŻYSERIA: McG
SCENARIUSZ: Timothy Dowling, Simon Kinberg
OBSADA: Reese Witherspoon, Chris Pine, Tom Hardy, Til Schweiger

DANE TECHNICZNE
NAZWA RELEASU: A Więc Wojna / This Means War (2012) PL.UNRATED.V2.720p.AC3-5.1.BluRay-VoYecK.x264-CinemaMovieS | Lektor PL
PARAMETRY: General
Complete name : voyeck-this.means.war.2012.pl.unrated.v2.720p.ac3.bluray.xcms.mkv
Format : Matroska
Format version : Version 2
File size : 2.14 GiB
Duration : 1h 44mn
Overall bit rate : 2 948 Kbps
Encoded date : UTC 2012-06-08 04:45:22
Writing application : mkvmerge v5.5.0 ('Healer') built on Apr 6 2012 21:43:24
Writing library : libebml v1.2.3 + libmatroska v1.3.0

Video
ID : 1
Format : AVC
Format/Info : Advanced Video Codec
Format profile : Main@L3.1
Format settings, CABAC : Yes
Format settings, ReFrames : 4 frames
Muxing mode : Header stripping
Codec ID : V_MPEG4/ISO/AVC
Duration : 1h 44mn
Bit rate : 2 500 Kbps
Width : 1 280 pixels
Height : 536 pixels
Display aspect ratio : 2.40:1
Frame rate mode : Variable
Frame rate : 23.976 fps
Color space : YUV
Chroma subsampling : 4:2:0
Bit depth : 8 bits
Scan type : Progressive
Bits/(Pixel*Frame) : 0.152
Stream size : 1.77 GiB (83%)
Writing library : x264 core 112

Audio
ID : 2
Format : AC-3
Format/Info : Audio Coding 3
Mode extension : CM (complete main)
Muxing mode : Header stripping
Codec ID : A_AC3
Duration : 1h 44mn
Bit rate mode : Constant
Bit rate : 448 Kbps
Channel(s) : 6 channels
Channel positions : Front: L C R, Side: L R, LFE
Sampling rate : 48.0 KHz
Bit depth : 16 bits
Compression mode : Lossy
Stream size : 333 MiB (15%)
Language : Polish
Default : Yes
Forced : No

Text
ID : 3
Format : UTF-8
Codec ID : S_TEXT/UTF8
Codec ID/Info : UTF-8 Plain Text
Default : Yes
Forced : No
DODATKOWE INFO: Lektor PL (normalny a nie taki drewniany jak poprzednio), dźwięk 5.1, wersja nieocenzurowana

SCREENY
A Więc Wojna / This Means War (2012) PL.UNRATED.V2.720p.AC3-5.1.BluRay-VoYecK.x264-CinemaMovieS | Lektor PL
A Więc Wojna / This Means War (2012) PL.UNRATED.V2.720p.AC3-5.1.BluRay-VoYecK.x264-CinemaMovieS | Lektor PL
A Więc Wojna / This Means War (2012) PL.UNRATED.V2.720p.AC3-5.1.BluRay-VoYecK.x264-CinemaMovieS | Lektor PL

Party po 400 MB lub film niespakowany
Można pobierać przemiennie
Na wszystkich serwerach ten sam film(release)
Dane Naprawcze 5%
Bez hasła
Pojedyncze pakowanie
Archiwa zawierają sam film i nic więcej


DOWNLOAD
Uwaga! Linki nie zakodowane tylko dla zarejestrowanych użytkowników!

Nie masz konta? Zarejestruj się za darmo!
----------------
Links are not encoded only for registered users only! Plese login or register!

Użytkownik VIP

bodzio9Uploader

#1 | Dodany: 27 Czerwiec 2012 11:10

A Więc Wojna / This Means War (2012) PL.AC3.720p.BRRip.XviD-evil | Lektor PL

Uwaga! Linki nie zakodowane tylko dla zarejestrowanych użytkowników!

Nie masz konta? Zarejestruj się za darmo!
----------------
Links are not encoded only for registered users only! Plese login or register!

Informacje

Jeżeli chcesz skomentować artykuł musisz być zarejestrowany na stronie.