EXSite.pl - Portal ze wszystkim Mamy tutaj wszystko

NIE MASZ JESZCZE KONTA? ZAREJESTRUJ SIĘ ZA DARMO!   
Przypomnij hasło X

Piraci! / The Pirates! Band of Misfits (2012) PL.720p.BluRay.x264.AC3-D4NT3 [2.86 GB] | Dubbing PL | +m720p

Dodał: kuros90 1 Wrzesień 2012 18:01


Piraci! / The Pirates! Band of Misfits (2012) PL.720p.BluRay.x264.AC3-D4NT3 [2.86 GB] | Dubbing PL | +m720p

Piraci! / The Pirates! Band of Misfits (2012) PL.720p.BluRay.x264.AC3-D4NT3 [2.86 GB] | Dubbing PL | +m720p

OPIS
Animacja powstająca na podstawie książki Gedeona Defoe, współscenarzysty kultowych „Uciekających kurczaków”. Głównymi bohaterami będzie „urocza” załoga piracka, której celem jest zdobycie tytułu Piratów Roku.

INFORMACJE
TYTUŁ FILMU: Piraci! / The Pirates! Band of Misfits
PRODUKCJA: USA, Wielka Brytania
GATUNEK: Animacja, Przygodowy, Familijny
CZAS TRWANIA: 88 min.
DATA PREMIERY: 13.04.2012 - Polska, 28.03.2012 - świat
REŻYSERIA: Peter Lord, Jeff Newitt
SCENARIUSZ: Gideon Defoe
OBSADA: Hugh Grant, Brendan Gleeson, Jeremy Piven, Brian Blessed

DANE TECHNICZNE
NAZWA RELEASU: Piraci! / The Pirates! Band of Misfits (2012) PL.720p.BluRay.x264.AC3-D4NT3 [2.86 GB] | Dubbing PL
PARAMETRY: Video Source: WiKi - 1280x544, AVC ~4000 kbps; Audio - AC3 5.1 ~640 kbps
DODATKOWE INFO: Dubbing PL

SCREENY
Piraci! / The Pirates! Band of Misfits (2012) PL.720p.BluRay.x264.AC3-D4NT3 [2.86 GB] | Dubbing PL | +m720p
Piraci! / The Pirates! Band of Misfits (2012) PL.720p.BluRay.x264.AC3-D4NT3 [2.86 GB] | Dubbing PL | +m720p
Piraci! / The Pirates! Band of Misfits (2012) PL.720p.BluRay.x264.AC3-D4NT3 [2.86 GB] | Dubbing PL | +m720p

Party po 400 MB (W przypadku większych plików party po 1 GB) lub film niespakowany
Można pobierać przemiennie
Na wszystkich serwerach ten sam film(release)
Dane Naprawcze 5%
Bez hasła
Pojedyncze pakowanie
Archiwa zawierają sam film i nic więcej


DOWNLOAD
Uwaga! Linki nie zakodowane tylko dla zarejestrowanych użytkowników!

Nie masz konta? Zarejestruj się za darmo!
----------------
Links are not encoded only for registered users only! Plese login or register!


+m720p

DANE TECHNICZNE
Format                                   : Matroska
Format version                           : Version 2
File size                                : 2.02 GiB
Duration                                 : 1h 28mn
Overall bit rate                         : 3 289 Kbps
Encoded date                             : UTC 2012-09-01 17:45:38
Writing application                      : mkvmerge v5.0.1 ('Es ist Sommer') built on Oct 13 2011 06:24:21
Writing library                          : libebml v1.2.2 + libmatroska v1.3.0

Video
ID                                       : 1
Format                                   : AVC
Format/Info                              : Advanced Video Codec
Format profile                           : High@L4.1
Format settings, CABAC                   : Yes
Format settings, ReFrames                : 8 frames
Muxing mode                              : Header stripping
Codec ID                                 : V_MPEG4/ISO/AVC
Duration                                 : 1h 28mn
Bit rate                                 : 2 645 Kbps
Width                                    : 1 280 pixels
Height                                   : 544 pixels
Display aspect ratio                     : 2.35:1
Frame rate                               : 23.976 fps
Color space                              : YUV
Chroma subsampling                       : 4:2:0
Bit depth                                : 8 bits
Scan type                                : Progressive
Bits/(Pixel*Frame)                       : 0.158
Stream size                              : 1.59 GiB (79%)

Audio
ID                                       : 2
Format                                   : AC-3
Format/Info                              : Audio Coding 3
Mode extension                           : CM (complete main)
Muxing mode                              : Header stripping
Codec ID                                 : A_AC3
Duration                                 : 1h 28mn
Bit rate mode                            : Constant
Bit rate                                 : 640 Kbps
Channel(s)                               : 6 channels
Channel positions                        : Front: L C R, Side: L R, LFE
Sampling rate                            : 48.0 KHz
Bit depth                                : 16 bits
Compression mode                         : Lossy
Stream size                              : 403 MiB (19%)
Language                                 : Polish
Default                                  : Yes
Forced                                   : No


DOWNLOAD
Uwaga! Linki nie zakodowane tylko dla zarejestrowanych użytkowników!

Nie masz konta? Zarejestruj się za darmo!
----------------
Links are not encoded only for registered users only! Plese login or register!

Użytkownik VIP

GHunter Użytkownik

#2 | Dodany: 16 Sierpień 2012 17:50

:-)
Użytkownik VIP

TommyZapUżytkownik

#3 | Dodany: 18 Sierpień 2012 21:06

Dobra wstawka. Rewelka, że niektórzy wstawiają turbobita 1 link . ok Bardzo dziękuję :)
Użytkownik VIP

Freedom35VIP

#4 | Dodany: 30 Sierpień 2012 17:45

- Piraci! / The Pirates! Band of Misfits (2012) PLDUB.720p.BluRay.x264-B89 Dubbing PL -

- iNFO - TECH -
                  
Format            : Matroska at 4.461 Kb/s
Length            : 2,74 GB for 1h 28 min. 5s 322ms

Video #0          : AVC at 3.819 Kb/s
Aspect            : 1280 x 544 (2.353) at 23.976 fps

Audio #0          : AC-3 at 640 Kb/s
Infos             : 6 kanałów, 48,0 KHz
Language          : pl

Source:
V: Rx | A: BD [e94 THX!]


- Można pobierać na przemian | Bez hasła -
Uwaga! Linki nie zakodowane tylko dla zarejestrowanych użytkowników!

Nie masz konta? Zarejestruj się za darmo!
----------------
Links are not encoded only for registered users only! Plese login or register!


- Pojedynczy link |Bez hasła | Bez archiwum -

Uwaga! Linki nie zakodowane tylko dla zarejestrowanych użytkowników!

Nie masz konta? Zarejestruj się za darmo!
----------------
Links are not encoded only for registered users only! Plese login or register!

Użytkownik VIP

rOdOwityUżytkownik

#5 | Dodany: 2 Wrzesień 2012 07:18

thx

Informacje

Jeżeli chcesz skomentować artykuł musisz być zarejestrowany na stronie.