EXSite.pl - Portal ze wszystkim Mamy tutaj wszystko

NIE MASZ JESZCZE KONTA? ZAREJESTRUJ SIĘ ZA DARMO!   
Przypomnij hasło X

Jeszcze dłuższe zaręczyny / The Five-Year Engagement (2012) MULTi.THEATRICAL.1080p.BluRay.x264-PSiG | Lektor PL

Dodał: ampatinis 12 Październik 2012 18:56


Jeszcze dłuższe zaręczyny / The Five-Year Engagement (2012) MULTi.THEATRICAL.1080p.BluRay.x264-PSiG | Lektor PL

Jeszcze dłuższe zaręczyny / The Five-Year Engagement (2012) MULTi.THEATRICAL.1080p.BluRay.x264-PSiG | Lektor PL

Jeszcze dłuższe zaręczyny / The Five-Year Engagement (2012) MULTi.THEATRICAL.1080p.BluRay.x264-PSiG | Lektor PL

czas trwania: 2 godz. 4 min.
gatunek: Komedia rom.
premiera: 29 czerwca 2012 (Polska) 27 kwietnia 2012 (świat)
produkcja: USA
reżyseria: Nicholas Stoller
scenariusz: Nicholas Stoller, Jason Segel

OPiS:
Po roku szczęśliwego związku Tom (Jason Segel) i Violet (Emily Blunt) zaręczają się i zaczynają planować ślub. Wszystko komplikuje nagły dwuletni staż Violet w innym mieście. ślub zostaje przełożony, lecz ku niezadowoleniu Toma, przyszła panna młoda dostaje awans i kontrakt na kolejne dwa lata. Czy w ko?cu uda im się pobrać?



Format : Matroska
Format version : Version 2
File size : 10.4 GiB
Duration : 2h 4mn
Overall bit rate : 12.0 Mbps
Movie name : IRONCLUB
Encoded date : UTC 2012-09-12 16:51:34
Writing application : mkvmerge v5.3.0 ('I could have danced') built on Feb 9 2012 10:38:07
Writing library : libebml v1.2.3 + libmatroska v1.3.0

Video
ID : 1
Format : AVC
Format/Info : Advanced Video Codec
Format profile : High@L4.1
Format settings, CABAC : Yes
Format settings, ReFrames : 4 frames
Codec ID : V_MPEG4/ISO/AVC
Duration : 2h 4mn
Bit rate : 9 998 Kbps
Width : 1 920 pixels
Height : 1 040 pixels
Display aspect ratio : 16:9
Frame rate : 23.976 fps
Color space : YUV
Chroma subsampling : 4:2:0
Bit depth : 8 bits
Scan type : Progressive
Bits/(Pixel*Frame) : 0.209
Stream size : 8.49 GiB (82%)
Writing library : x264 core 125 r2200 999b753
Encoding settings : cabac=1 / ref=2 / deblock=1:0:0 / analyse=0x3:0x113 / me=hex / subme=6 / psy=1 / psy_rd=1.00:0.00 / mixed_ref=1 / me_range=16 / chroma_me=1 / trellis=0 / 8x8dct=1 / cqm=0 / deadzone=21,11 / fast_pskip=1 / chroma_qp_offset=-2 / threads=12 / lookahead_threads=2 / sliced_threads=0 / nr=0 / decimate=1 / interlaced=0 / bluray_compat=0 / constrained_intra=0 / bframes=3 / b_pyramid=2 / b_adapt=1 / b_bias=0 / direct=1 / weightb=1 / open_gop=0 / weightp=1 / keyint=240 / keyint_min=23 / scenecut=40 / intra_refresh=0 / rc_lookahead=30 / rc=2pass / mbtree=1 / bitrate=9998 / ratetol=1.0 / qcomp=0.60 / qpmin=0 / qpmax=69 / qpstep=4 / cplxblur=20.0 / qblur=0.5 / ip_ratio=1.40 / aq=1:1.00
Language : English
Default : Yes
Forced : No

Audio #1
ID : 2
Format : AC-3
Format/Info : Audio Coding 3
Mode extension : CM (complete main)
Codec ID : A_AC3
Duration : 2h 4mn
Bit rate mode : Constant
Bit rate : 448 Kbps
Channel(s) : 6 channels
Channel positions : Front: L C R, Side: L R, LFE
Sampling rate : 48.0 KHz
Bit depth : 16 bits
Compression mode : Lossy
Stream size : 399 MiB (4%)
Language : Polish
Default : Yes
Forced : No

Audio #2
ID : 3
Format : DTS
Format/Info : Digital Theater Systems
Codec ID : A_DTS
Duration : 2h 4mn
Bit rate mode : Constant
Bit rate : 1 510 Kbps
Channel(s) : 6 channels
Channel positions : Front: L C R, Side: L R, LFE
Sampling rate : 48.0 KHz
Bit depth : 24 bits
Compression mode : Lossy
Stream size : 1.31 GiB (13%)
Title : DTS 5.1 @ 1536 kbps
Language : English
Default : No
Forced : No

Text
ID : 4
Format : UTF-8
Codec ID : S_TEXT/UTF8
Codec ID/Info : UTF-8 Plain Text
Language : Polish
Default : No
Forced : No


Jeszcze dłuższe zaręczyny / The Five-Year Engagement (2012) MULTi.THEATRICAL.1080p.BluRay.x264-PSiG | Lektor PL

Jeszcze dłuższe zaręczyny / The Five-Year Engagement (2012) MULTi.THEATRICAL.1080p.BluRay.x264-PSiG | Lektor PL Jeszcze dłuższe zaręczyny / The Five-Year Engagement (2012) MULTi.THEATRICAL.1080p.BluRay.x264-PSiG | Lektor PL

Jeszcze dłuższe zaręczyny / The Five-Year Engagement (2012) MULTi.THEATRICAL.1080p.BluRay.x264-PSiG | Lektor PL
Uwaga! Linki nie zakodowane tylko dla zarejestrowanych użytkowników!

Nie masz konta? Zarejestruj się za darmo!
----------------
Links are not encoded only for registered users only! Plese login or register!



Informacje

Jeżeli chcesz skomentować artykuł musisz być zarejestrowany na stronie.