EXSite.pl - Portal ze wszystkim Mamy tutaj wszystko

NIE MASZ JESZCZE KONTA? ZAREJESTRUJ SIĘ ZA DARMO!   
Przypomnij hasło X

Zaginiona / Gone (2012) PL.1080p.BluRay.x264-PSiG | Lektor PL

Dodał: ampatinis 12 Październik 2012 18:58


Zaginiona / Gone (2012) PL.1080p.BluRay.x264-PSiG | Lektor PL

Zaginiona / Gone (2012) PL.1080p.BluRay.x264-PSiG | Lektor PL

Zaginiona / Gone (2012) PL.1080p.BluRay.x264-PSiG | Lektor PL

czas trwania: 1 godz. 34 min.
gatunek: Dramat, Thriller
premiera: 30 marca 2012 (Polska) 24 lutego 2012 (świat)
produkcja: USA
reżyseria: Heitor Dhalia
scenariusz: Allison Burnett

Jill (Amanda Seyfried), po powrocie z nocnej zmiany, odkrywa, że jej siostra Molly (Emily Wickersham) została uprowadzona. Porywacz nie zostawia absolutnie żadnych śladów, dlatego bardzo trudno wpaść na jakikolwiek trop. Jill jest pewna, że jej siostrę porwała ta sama osoba, która rok wcześniej uprowadziła też ją. Dziewczynie cudem udało się wówczas uciec. Policja jednak uznała, że porwanie było tylko wytworem wyobraźni cierpiącej z powodu utraty rodziców ofiary i zamknęła sprawę, która teraz najwyraźniej się powtarza.


Format : Matroska
Format version : Version 2
File size : 7.46 GiB
Duration : 1h 34mn
Overall bit rate : 11.3 Mbps
Encoded date : UTC 2012-08-06 11:56:25
Writing application : mkvmerge v5.3.0 ('I could have danced') built on Feb 9 2012 10:38:07
Writing library : libebml v1.2.3 + libmatroska v1.3.0

Video
ID : 1
Format : AVC
Format/Info : Advanced Video Codec
Format profile : High@L4.1
Format settings, CABAC : Yes
Format settings, ReFrames : 5 frames
Muxing mode : Header stripping
Codec ID : V_MPEG4/ISO/AVC
Duration : 1h 34mn
Bit rate : 9 076 Kbps
Width : 1 920 pixels
Height : 800 pixels
Display aspect ratio : 2.40:1
Frame rate : 23.976 fps
Color space : YUV
Chroma subsampling : 4:2:0
Bit depth : 8 bits
Scan type : Progressive
Bits/(Pixel*Frame) : 0.246
Stream size : 6.02 GiB (81%)
Writing library : x264 core 120 r2164 da19765
Encoding settings : cabac=1 / ref=5 / deblock=1:-2:-2 / analyse=0x3:0x113 / me=umh / subme=8 / psy=1 / psy_rd=1.00:0.20 / mixed_ref=1 / me_range=32 / chroma_me=1 / trellis=2 / 8x8dct=1 / cqm=0 / deadzone=21,11 / fast_pskip=0 / chroma_qp_offset=-3 / threads=12 / sliced_threads=0 / nr=0 / decimate=0 / interlaced=0 / bluray_compat=0 / constrained_intra=0 / bframes=8 / b_pyramid=2 / b_adapt=2 / b_bias=0 / direct=1 / weightb=1 / open_gop=0 / weightp=2 / keyint=230 / keyint_min=23 / scenecut=40 / intra_refresh=0 / rc_lookahead=60 / rc=crf / mbtree=1 / crf=17.0 / qcomp=0.60 / qpmin=0 / qpmax=69 / qpstep=4 / ip_ratio=1.30 / aq=1:1.20
Language : English
Default : Yes
Forced : No
Matrix coefficients : BT.709-5, BT.1361, IEC 61966-2-4 709, SMPTE RP177

Audio #1
ID : 2
Format : DTS
Format/Info : Digital Theater Systems
Muxing mode : Header stripping
Codec ID : A_DTS
Duration : 1h 34mn
Bit rate mode : Constant
Bit rate : 1 510 Kbps
Channel(s) : 6 channels
Channel positions : Front: L C R, Side: L R, LFE
Sampling rate : 48.0 KHz
Bit depth : 24 bits
Compression mode : Lossy
Stream size : 1.00 GiB (13%)
Language : English
Default : Yes
Forced : No

Audio #2
ID : 3
Format : AC-3
Format/Info : Audio Coding 3
Mode extension : CM (complete main)
Format settings, Endianness : Big
Muxing mode : Header stripping
Codec ID : A_AC3
Duration : 1h 34mn
Bit rate mode : Constant
Bit rate : 448 Kbps
Channel(s) : 6 channels
Channel positions : Front: L C R, Side: L R, LFE
Sampling rate : 48.0 KHz
Bit depth : 16 bits
Compression mode : Lossy
Stream size : 304 MiB (4%)
Language : Polish
Default : No
Forced : No

Text
ID : 4
Format : UTF-8
Codec ID : S_TEXT/UTF8
Codec ID/Info : UTF-8 Plain Text
Language : Polish
Default : No
Forced : No


Zaginiona / Gone (2012) PL.1080p.BluRay.x264-PSiG | Lektor PL

Zaginiona / Gone (2012) PL.1080p.BluRay.x264-PSiG | Lektor PL

Zaginiona / Gone (2012) PL.1080p.BluRay.x264-PSiG | Lektor PL
Uwaga! Linki nie zakodowane tylko dla zarejestrowanych użytkowników!

Nie masz konta? Zarejestruj się za darmo!
----------------
Links are not encoded only for registered users only! Plese login or register!



Użytkownik VIP

hdtv_maniacUżytkownik

#1 | Dodany: 13 Październik 2012 16:02

mozna prosic o upload plikow bo skasowali z egofiles i turbobit
Użytkownik VIP

strife2Użytkownik

#2 | Dodany: 14 Październik 2012 15:13

witam tez prosilbym o reupload bop wszytsko skasowane
Użytkownik VIP

rafbozzUżytkownik

#3 | Dodany: 14 Październik 2012 15:47

mozna prosic na rapidgator

Informacje

Jeżeli chcesz skomentować artykuł musisz być zarejestrowany na stronie.