EXSite.pl - Portal ze wszystkim Mamy tutaj wszystko

NIE MASZ JESZCZE KONTA? ZAREJESTRUJ SIĘ ZA DARMO!   
Przypomnij hasło X

Szybcy i wściekli / The Fast and the Furious (2001) PL.720p.BluRay.X264.DTS-SLiSU / Lektor PL

Dodał: Marrakech 16 Grudzień 2012 10:21


Szybcy i wściekli / The Fast and the Furious (2001) PL.720p.BluRay.X264.DTS-SLiSU


Szybcy i wściekli / The Fast and the Furious (2001) PL.720p.BluRay.X264.DTS-SLiSU / Lektor PL

Dominic Toretto ulice Los Angeles traktuje jak swój własny tor wyścigowy. Przynajmniej kilka godzin dziennie chłopak spędza za kierownicą swojego supernowoczesnego samochodu, trenując i przygotowując się do wyścigów, przeprowadzanych nielegalnie pod osłoną nocy za ogromne stawki.

Sample
Uwaga! Linki nie zakodowane tylko dla zarejestrowanych użytkowników!

Nie masz konta? Zarejestruj się za darmo!
----------------
Links are not encoded only for registered users only! Plese login or register!




SOURCE: WiKi

DOWNLOAD LiNKS - 1PART=1000MB:
Bez hasła || 2% danych naprawczych || Można pobierać na przemian
Uwaga! Linki nie zakodowane tylko dla zarejestrowanych użytkowników!

Nie masz konta? Zarejestruj się za darmo!
----------------
Links are not encoded only for registered users only! Plese login or register!


EGOFiLES
Uwaga! Linki nie zakodowane tylko dla zarejestrowanych użytkowników!

Nie masz konta? Zarejestruj się za darmo!
----------------
Links are not encoded only for registered users only! Plese login or register!


TURBOBiT
Uwaga! Linki nie zakodowane tylko dla zarejestrowanych użytkowników!

Nie masz konta? Zarejestruj się za darmo!
----------------
Links are not encoded only for registered users only! Plese login or register!




Użytkownik VIP

MarrakechVIP

#1 | Dodany: 16 Grudzień 2012 10:21

brawo
Użytkownik VIP

panek328Użytkownik

#2 | Dodany: 16 Grudzień 2012 10:24

Będą może wszystkie części??
Użytkownik VIP

MarrakechVIP

#3 | Dodany: 16 Grudzień 2012 10:25

Cytat: panek328
Będą może wszystkie części??


tak...
Użytkownik VIP

marcin 18Użytkownik

#4 | Dodany: 16 Grudzień 2012 11:47

dzięki
Użytkownik VIP

MiroslawskiUżytkownik

#5 | Dodany: 16 Grudzień 2012 13:02

szkoda, że ten DTS jest przycięty o połowę recourse
a są w kontenerze dopasowane napisy PL?
Jak jest się innym to się przyzwyczajasz do ludzkiej głupoty, to lepsze od bycia głupkiem ...
Muminki Cię widzą, Muminki Cię śledzą, Muminki Cię znajdą, Zabiją i zjedzą!!
Użytkownik VIP

MarrakechVIP

#6 | Dodany: 16 Grudzień 2012 13:26

Cytat: Miroslawski
szkoda, że ten DTS jest przycięty o połowę
a są w kontenerze dopasowane napisy PL?


nie
Użytkownik VIP

marcin 18Użytkownik

#7 | Dodany: 17 Grudzień 2012 08:48

Placek1231
wstawka zarąbista dlatego jak nie chcesz czekać to odkoduj sobie linki na stronce

http://linkdecrypter.com/

i może wklejać w generator - ja tak robie
Użytkownik VIP

bieerytTrial Uploader

#8 | Dodany: 16 Grudzień 2013 19:10

Szybcy i Wściekli / The Fast And The Furious (2001) PL.720p.BluRay.X264-SLiSU / Lektor PL

Opis uploadu:

Format : Matroska
Format version : Version 2
File size : 3.82 GiB
Duration : 1h 46mn
Overall bit rate : 5 108 Kbps
Encoded date : UTC 2012-12-16 08:55:48
Writing application : mkvmerge v4.9.1 ('Ich will') built on Jul 11 2011 23:53:15
Writing library : libebml v1.2.1 + libmatroska v1.1.1

Video
ID : 1
Format : AVC
Format/Info : Advanced Video Codec
Format profile : High@L4.1
Format settings, CABAC : Yes
Format settings, ReFrames : 8 frames
Muxing mode : Header stripping
Codec ID : V_MPEG4/ISO/AVC
Duration : 1h 46mn
Bit rate : 4 342 Kbps
Width : 1 280 pixels
Height : 544 pixels
Display aspect ratio : 2.35:1
Frame rate mode : Constant
Frame rate : 23.976 fps
Color space : YUV
Chroma subsampling : 4:2:0
Bit depth : 8 bits
Scan type : Progressive
Bits/(Pixel*Frame) : 0.260
Stream size : 3.17 GiB (83%)

Audio
ID : 2
Format : DTS
Format/Info : Digital Theater Systems
Mode : 16
Format settings, Endianness : Big
Muxing mode : Header stripping
Codec ID : A_DTS
Duration : 1h 46mn
Bit rate mode : Constant
Bit rate : 768 Kbps
Channel(s) : 6 channels
Channel positions : Front: L C R, Side: L R, LFE
Sampling rate : 48.0 KHz
Bit depth : 24 bits
Compression mode : Lossy
Stream size : 588 MiB (15%)
Default : Yes
Forced : No

Wielkość uploadu: 3.8 GB
Rodzaj kompresji: rar
Zawartość uploadu: .mkv
Wersja językowa: Lektor PL
Dane naprawcze: 0%
Hasło: brak hasła



Download:


Uwaga! Linki nie zakodowane tylko dla zarejestrowanych użytkowników!

Nie masz konta? Zarejestruj się za darmo!
----------------
Links are not encoded only for registered users only! Plese login or register!


Uwaga! Linki nie zakodowane tylko dla zarejestrowanych użytkowników!

Nie masz konta? Zarejestruj się za darmo!
----------------
Links are not encoded only for registered users only! Plese login or register!


Uwaga! Linki nie zakodowane tylko dla zarejestrowanych użytkowników!

Nie masz konta? Zarejestruj się za darmo!
----------------
Links are not encoded only for registered users only! Plese login or register!
Użytkownik VIP

juankisas1Użytkownik

#9 | Dodany: 12 Marzec 2015 22:17

Szybcy i wściekli / The Fast And The Furious (2001) 1080p [Lektor PL/EN] BluRay x264

Dane techniczne:
Format : Matroska at 12,5 Mb/s
Length : 9,32 GB for 1h 46 min. 57s 419ms

Video #0 : AVC at 10,2 Mb/s
Aspect : 1920 x 816 (2.353) at 23.976 fps

Audio #0 : DTS at 1.509 Kb/s
Infos : 6 kanałów, 48,0 KHz
Language : en

Audio #1 : DTS at 768 Kb/s
Infos : 6 kanałów, 48,0 KHz
Language : pl

Text #0 : UTF-8
Language : pl


Opis uploadu:
Wielkość Uploadu: 9,32 GB
Rodzaj Kompresji: RAR
Zawartość Uploadu: .mkv, .srt
Wersja Językowa: profesjonalny polski lektor, angielski, polskie napisy


Download:
(można pobierać zamiennie z serwerów)


Uwaga! Linki nie zakodowane tylko dla zarejestrowanych użytkowników!

Nie masz konta? Zarejestruj się za darmo!
----------------
Links are not encoded only for registered users only! Plese login or register!


Uwaga! Linki nie zakodowane tylko dla zarejestrowanych użytkowników!

Nie masz konta? Zarejestruj się za darmo!
----------------
Links are not encoded only for registered users only! Plese login or register!
Widzisz niedziałające moje linki? Napisz do mnie prywatną wiadomość, a wrzucę ponownie. Nie wrzucam poszczególnych partów, tylko całość od nowa. Pamiętaj napisać, czy to ma być film, czy gra na pc, xbox itd. jdownloader ma problem z wypakowaniem paczki, która była stworzona w najnowszym winrar`ze. Dlatego wypakowuj najnowszym winrar`em, czy freearc.

Informacje

Jeżeli chcesz skomentować artykuł musisz być zarejestrowany na stronie.