EXSite.pl - Portal ze wszystkim Mamy tutaj wszystko

NIE MASZ JESZCZE KONTA? ZAREJESTRUJ SIĘ ZA DARMO!   
Przypomnij hasło X

Za szybcy, za wściekli / 2 Fast 2 Furious (2003) PL.720p.BluRay.X264.DTS-SLiSU / Lektor PL

Dodał: Marrakech 16 Grudzień 2012 11:38


Za szybcy, za wściekli / 2 Fast 2 Furious (2003) PL.720p.BluRay.X264.DTS-SLiSU

Za szybcy, za wściekli / 2 Fast 2 Furious (2003) PL.720p.BluRay.X264.DTS-SLiSU / Lektor PL

Brian O'Conner zniweczył zaplanowane na olbrzymią skalę śledztwo i stracił pracę w policji. Jego lojalność została wystawiona na próbę podczas infiltracji środowiska kierowców organizujących niebezpieczne nocne wyścigi na ulicach Los Angeles. Teraz O'Connor ma przed sobą ostatnią szansę - w innym mieście i w innym czasie. Musi pomóc w schwytaniu Cartera Verone, biznesmena, który pracuje dla międzynarodowego kartelu piorącego brudne pieniądze. Na razie udało się tylko odkryć powiązania Cartera z nielegalnymi wyścigami samochodowymi.

Sample
Uwaga! Linki nie zakodowane tylko dla zarejestrowanych użytkowników!

Nie masz konta? Zarejestruj się za darmo!
----------------
Links are not encoded only for registered users only! Plese login or register!




Source: WiKi

TURBOBiT
Uwaga! Linki nie zakodowane tylko dla zarejestrowanych użytkowników!

Nie masz konta? Zarejestruj się za darmo!
----------------
Links are not encoded only for registered users only! Plese login or register!


EGOFiLES
Uwaga! Linki nie zakodowane tylko dla zarejestrowanych użytkowników!

Nie masz konta? Zarejestruj się za darmo!
----------------
Links are not encoded only for registered users only! Plese login or register!


DOWNLOAD LiNKS - 1PART=1000MB:
Bez hasła || 2% danych naprawczych || Można pobierać na przemian
Uwaga! Linki nie zakodowane tylko dla zarejestrowanych użytkowników!

Nie masz konta? Zarejestruj się za darmo!
----------------
Links are not encoded only for registered users only! Plese login or register!





Użytkownik VIP

MarrakechVIP

#1 | Dodany: 16 Grudzień 2012 11:38

brawo
Użytkownik VIP

VanDustUżytkownik

#2 | Dodany: 16 Grudzień 2012 12:06

PODZI?KOWOŁ! ok
Użytkownik VIP

MiroslawskiUżytkownik

#3 | Dodany: 16 Grudzień 2012 13:03

ok thx
Jak jest się innym to się przyzwyczajasz do ludzkiej głupoty, to lepsze od bycia głupkiem ...
Muminki Cię widzą, Muminki Cię śledzą, Muminki Cię znajdą, Zabiją i zjedzą!!
Użytkownik VIP

zbyszko1979Użytkownik

#4 | Dodany: 16 Grudzień 2012 19:22

Ma ktoś może ten film w dvd 5 ?
Użytkownik VIP

MotyleczekUploader

#5 | Dodany: 16 Grudzień 2012 22:24


Za szybcy, za wściekli / 2 Fast 2 Furious (2003) PL.720p.BluRay.X264.DTS-SLiSU | LEKTOR PL

Format : Matroska at 5 067 Kbps
Length : 3.81 GiB for 1h 47mn 41s 758ms

Video #0 : AVC at 4 301 Kbps
Aspect : 1280 x 544 (2.353) at 23.976 fps

Audio #0 : DTS at 768 Kbps
Infos : 6 channels, 48.0 KHz

Uwaga! Linki nie zakodowane tylko dla zarejestrowanych użytkowników!

Nie masz konta? Zarejestruj się za darmo!
----------------
Links are not encoded only for registered users only! Plese login or register!
Użytkownik VIP

bieerytTrial Uploader

#6 | Dodany: 16 Grudzień 2013 19:08

Za Szybcy, Za Wściekli / 2 Fast 2 Furious (2003) PL.720p.BluRay.X264.DTS-SLiSU / Lektor PL

Opis uploadu:

Format : Matroska
Format version : Version 2
File size : 3.81 GiB
Duration : 1h 47mn
Overall bit rate : 5 067 Kbps
Encoded date : UTC 2012-12-16 10:13:47
Writing application : mkvmerge v4.9.1 ('Ich will') built on Jul 11 2011 23:53:15
Writing library : libebml v1.2.1 + libmatroska v1.1.1

Video
ID : 1
Format : AVC
Format/Info : Advanced Video Codec
Format profile : High@L4.1
Format settings, CABAC : Yes
Format settings, ReFrames : 8 frames
Muxing mode : Header stripping
Codec ID : V_MPEG4/ISO/AVC
Duration : 1h 47mn
Bit rate : 4 301 Kbps
Width : 1 280 pixels
Height : 544 pixels
Display aspect ratio : 2.35:1
Frame rate mode : Constant
Frame rate : 23.976 fps
Color space : YUV
Chroma subsampling : 4:2:0
Bit depth : 8 bits
Scan type : Progressive
Bits/(Pixel*Frame) : 0.258
Stream size : 3.16 GiB (83%)

Audio
ID : 2
Format : DTS
Format/Info : Digital Theater Systems
Mode : 16
Format settings, Endianness : Big
Muxing mode : Header stripping
Codec ID : A_DTS
Duration : 1h 47mn
Bit rate mode : Constant
Bit rate : 768 Kbps
Channel(s) : 6 channels
Channel positions : Front: L C R, Side: L R, LFE
Sampling rate : 48.0 KHz
Bit depth : 24 bits
Compression mode : Lossy
Stream size : 592 MiB (15%)
Default : Yes
Forced : No

Wielkość uploadu: 3.79 GB
Rodzaj kompresji: rar
Zawartość uploadu: .mkv
Wersja językowa: Lektor PL
Dane naprawcze: 0%
Hasło: brak hasła



Download:


Uwaga! Linki nie zakodowane tylko dla zarejestrowanych użytkowników!

Nie masz konta? Zarejestruj się za darmo!
----------------
Links are not encoded only for registered users only! Plese login or register!

Uwaga! Linki nie zakodowane tylko dla zarejestrowanych użytkowników!

Nie masz konta? Zarejestruj się za darmo!
----------------
Links are not encoded only for registered users only! Plese login or register!

Uwaga! Linki nie zakodowane tylko dla zarejestrowanych użytkowników!

Nie masz konta? Zarejestruj się za darmo!
----------------
Links are not encoded only for registered users only! Plese login or register!
Użytkownik VIP

juankisas1Użytkownik

#7 | Dodany: 16 Marzec 2015 00:12

Za szybcy, za wściekli / 2 Fast 2 Furious (2003) 1080p [Lektor PL/EN] BluRay x264

Dane techniczne:
Format : Matroska at 12,4 Mb/s
Length : 9,32 GB for 1h 47 min. 41s 792ms

Video #0 : AVC at 10,1 Mb/s
Aspect : 1920 x 816 (2.353) at 23.976 fps

Audio #0 : DTS at 768 Kb/s
Infos : 6 kanałów, 48,0 KHz
Language : pl

Audio #1 : DTS at 1.509 Kb/s
Infos : 6 kanałów, 48,0 KHz
Language : en

Text #0 : UTF-8
Language : pl


Opis uploadu:
Wielkość Uploadu: 9,32 GB
Rodzaj Kompresji: RAR
Zawartość Uploadu: .mkv, .srt
Wersja Językowa: profesjonalny polski lektor, angielski, polskie napisy


Download:
(można pobierać zamiennie z serwerów)


Uwaga! Linki nie zakodowane tylko dla zarejestrowanych użytkowników!

Nie masz konta? Zarejestruj się za darmo!
----------------
Links are not encoded only for registered users only! Plese login or register!


Uwaga! Linki nie zakodowane tylko dla zarejestrowanych użytkowników!

Nie masz konta? Zarejestruj się za darmo!
----------------
Links are not encoded only for registered users only! Plese login or register!
Widzisz niedziałające moje linki? Napisz do mnie prywatną wiadomość, a wrzucę ponownie. Nie wrzucam poszczególnych partów, tylko całość od nowa. Pamiętaj napisać, czy to ma być film, czy gra na pc, xbox itd. jdownloader ma problem z wypakowaniem paczki, która była stworzona w najnowszym winrar`ze. Dlatego wypakowuj najnowszym winrar`em, czy freearc.

Informacje

Jeżeli chcesz skomentować artykuł musisz być zarejestrowany na stronie.