EXSite.pl - Portal ze wszystkim Mamy tutaj wszystko

NIE MASZ JESZCZE KONTA? ZAREJESTRUJ SIĘ ZA DARMO!   
Przypomnij hasło X

Szybcy i wściekli: Tokio Drift / The Fast and the Furious: Tokyo Drift (2006) PL.720p.BluRay.X264-SLiSU / Lektor PL

Dodał: Marrakech 16 Grudzień 2012 12:51


Szybcy i wściekli: Tokio Drift / The Fast and the Furious: Tokyo Drift (2006) PL.720p.BluRay.X264-SLiSU


Szybcy i wściekli: Tokio Drift / The Fast and the Furious: Tokyo Drift (2006) PL.720p.BluRay.X264-SLiSU / Lektor PL

Historia Seana Boswella, który zawsze był outsiderem. Ten typ samotnika, wyobcowanego zarówno w domu rodzinnym, jak i poza nim, odnajduje związek z obojętnym mu otaczającym światem jedynie poprzez nielegalne wyścigi samochodów. Po jednej z kolejnych kraks, chcąc uniknąć kary więzienia, Sean zostaje "oddelegowany z kraju", wysłany do Tokio, gdzie przychodzi mu dzielić niewielkie mieszkanie w zapuszczonej dzielnicy miasta z pracującym dla wojska, szorstkim ojcem. W nowym otoczeniu, Sean czuje się jeszcze bardziej gaijin - outsiderem.

Sample
Uwaga! Linki nie zakodowane tylko dla zarejestrowanych użytkowników!

Nie masz konta? Zarejestruj się za darmo!
----------------
Links are not encoded only for registered users only! Plese login or register!




Source: WiKi

EGOFiLES
Uwaga! Linki nie zakodowane tylko dla zarejestrowanych użytkowników!

Nie masz konta? Zarejestruj się za darmo!
----------------
Links are not encoded only for registered users only! Plese login or register!


TURBOBiT
Uwaga! Linki nie zakodowane tylko dla zarejestrowanych użytkowników!

Nie masz konta? Zarejestruj się za darmo!
----------------
Links are not encoded only for registered users only! Plese login or register!


DOWNLOAD LiNKS - 1PART=1000MB:
Bez hasła || 2% danych naprawczych || Można pobierać na przemian
Uwaga! Linki nie zakodowane tylko dla zarejestrowanych użytkowników!

Nie masz konta? Zarejestruj się za darmo!
----------------
Links are not encoded only for registered users only! Plese login or register!



Użytkownik VIP

MarrakechVIP

#1 | Dodany: 16 Grudzień 2012 12:51

brawo
Użytkownik VIP

MiroslawskiUżytkownik

#2 | Dodany: 16 Grudzień 2012 13:01

a tej części nie znalazłeś ze ścieżką dźwiękową oryginalną tak jak dwie pierwsze?
będzie komplet czyli pięć?
Jak jest się innym to się przyzwyczajasz do ludzkiej głupoty, to lepsze od bycia głupkiem ...
Muminki Cię widzą, Muminki Cię śledzą, Muminki Cię znajdą, Zabiją i zjedzą!!
Użytkownik VIP

MarrakechVIP

#3 | Dodany: 16 Grudzień 2012 13:11

Cytat: Miroslawski
a tej części nie znalazłeś ze ścieżką dźwiękową oryginalną tak jak dwie pierwsze?
będzie komplet czyli pięć?
nie, przykro
Użytkownik VIP

MotyleczekUploader

#4 | Dodany: 16 Grudzień 2012 21:18


Szybcy i wściekli: Tokio Drift / The Fast and the Furious: Tokyo Drift (2006) PL.720p.BluRay.X264-SLiSU | LEKTOR PL

Format : Matroska at 4 943 Kbps
Length : 3.60 GiB for 1h 44mn 14s 144ms

Video #0 : AVC at 4 494 Kbps
Aspect : 1280 x 544 (2.353) at 23.976 fps

Audio #0 : AC-3 at 448 Kbps
Infos : 6 channels, 48.0 KHz

Uwaga! Linki nie zakodowane tylko dla zarejestrowanych użytkowników!

Nie masz konta? Zarejestruj się za darmo!
----------------
Links are not encoded only for registered users only! Plese login or register!
Użytkownik VIP

bieerytTrial Uploader

#5 | Dodany: 16 Grudzień 2013 19:08

Szybcy i wściekli: Tokio Drift / The Fast And The Furious: Tokyo Drift (2006) PL.720p.BluRay.X264-SLiSU / Lektor PL

Opis uploadu:

Format : Matroska
Format version : Version 2
File size : 3.60 GiB
Duration : 1h 44mn
Overall bit rate : 4 943 Kbps
Encoded date : UTC 2012-12-16 10:59:37
Writing application : mkvmerge v4.9.1 ('Ich will') built on Jul 11 2011 23:53:15
Writing library : libebml v1.2.1 + libmatroska v1.1.1

Video
ID : 1
Format : AVC
Format/Info : Advanced Video Codec
Format profile : High@L4.1
Format settings, CABAC : Yes
Format settings, ReFrames : 8 frames
Muxing mode : Header stripping
Codec ID : V_MPEG4/ISO/AVC
Duration : 1h 44mn
Bit rate : 4 494 Kbps
Width : 1 280 pixels
Height : 544 pixels
Display aspect ratio : 2.35:1
Frame rate mode : Constant
Frame rate : 23.976 fps
Color space : YUV
Chroma subsampling : 4:2:0
Bit depth : 8 bits
Scan type : Progressive
Bits/(Pixel*Frame) : 0.269
Stream size : 3.20 GiB (89%)

Audio
ID : 2
Format : AC-3
Format/Info : Audio Coding 3
Mode extension : CM (complete main)
Format settings, Endianness : Big
Muxing mode : Header stripping
Codec ID : A_AC3
Duration : 1h 44mn
Bit rate mode : Constant
Bit rate : 448 Kbps
Channel(s) : 6 channels
Channel positions : Front: L C R, Side: L R, LFE
Sampling rate : 48.0 KHz
Bit depth : 16 bits
Compression mode : Lossy
Stream size : 334 MiB (9%)
Default : Yes
Forced : No

Wielkość uploadu: 3.64 GB
Rodzaj kompresji: rar
Zawartość uploadu: .mkv
Wersja językowa: Lektor PL
Dane naprawcze: 0%
Hasło: brak hasła



Download:


http://egofiles.com/sWScwx4ertikbWO9/The.Fast.And.The.Furious.III.Tokyo.Drift.2006.PL.BluRay.720p.x264-SLiSU.part1.rar
http://egofiles.com/NfZPctg4JtDDwLIS/The.Fast.And.The.Furious.III.Tokyo.Drift.2006.PL.BluRay.720p.x264-SLiSU.part2.rar
http://egofiles.com/Hj9lPzXSwtPdjWkx/The.Fast.And.The.Furious.III.Tokyo.Drift.2006.PL.BluRay.720p.x264-SLiSU.part3.rar


Uwaga! Linki nie zakodowane tylko dla zarejestrowanych użytkowników!

Nie masz konta? Zarejestruj się za darmo!
----------------
Links are not encoded only for registered users only! Plese login or register!


Uwaga! Linki nie zakodowane tylko dla zarejestrowanych użytkowników!

Nie masz konta? Zarejestruj się za darmo!
----------------
Links are not encoded only for registered users only! Plese login or register!
Użytkownik VIP

juankisas1Użytkownik

#6 | Dodany: 16 Marzec 2015 19:31

Szybcy i wściekli: Tokio Drift / The Fast and the Furious: Tokyo Drift (2006) 1080p [Lektor PL/EN] BluRay x264

Dane techniczne:
Format : Matroska at 12,5 Mb/s
Length : 9,07 GB for 1h 44 min. 14s 144ms

Video #0 : AVC at 10,5 Mb/s
Aspect : 1920 x 816 (2.353) at 23.976 fps

Audio #0 : AC-3 at 448 Kb/s
Infos : 6 kanałów, 48,0 KHz
Language : pl

Audio #1 : DTS at 1.509 Kb/s
Infos : 6 kanałów, 48,0 KHz
Language : en

Text #0 : UTF-8
Language : pl


Opis uploadu:
Wielkość Uploadu: 9,07 GB
Rodzaj Kompresji: RAR
Zawartość Uploadu: .mkv, .srt
Wersja Językowa: profesjonalny polski lektor, angielski, polskie napisy


Download:
(można pobierać zamiennie z serwerów)


Uwaga! Linki nie zakodowane tylko dla zarejestrowanych użytkowników!

Nie masz konta? Zarejestruj się za darmo!
----------------
Links are not encoded only for registered users only! Plese login or register!


Uwaga! Linki nie zakodowane tylko dla zarejestrowanych użytkowników!

Nie masz konta? Zarejestruj się za darmo!
----------------
Links are not encoded only for registered users only! Plese login or register!
Widzisz niedziałające moje linki? Napisz do mnie prywatną wiadomość, a wrzucę ponownie. Nie wrzucam poszczególnych partów, tylko całość od nowa. Pamiętaj napisać, czy to ma być film, czy gra na pc, xbox itd. jdownloader ma problem z wypakowaniem paczki, która była stworzona w najnowszym winrar`ze. Dlatego wypakowuj najnowszym winrar`em, czy freearc.

Informacje

Jeżeli chcesz skomentować artykuł musisz być zarejestrowany na stronie.