EXSite.pl - Portal ze wszystkim Mamy tutaj wszystko

NIE MASZ JESZCZE KONTA? ZAREJESTRUJ SIĘ ZA DARMO!   
Przypomnij hasło X

Szybcy i wściekli 5 / Fast Five (2011) PL.720p.BluRay.X264-SLiSU / Lektor PL

Dodał: Marrakech 16 Grudzień 2012 15:28


Szybcy i wściekli 5 / Fast Five (2011) PL.720p.BluRay.X264-SLiSU


Szybcy i wściekli 5 / Fast Five (2011) PL.720p.BluRay.X264-SLiSU / Lektor PL

Kiedy ostatnio ich widzieliśmy, Brian i Mia Toretto pomagali Domowi wydostać się z aresztu, a teraz przyparci do muru w Rio de Janeiro muszą podjąć się ostatniego zadania, żeby odzyskać wolność. Ich misja? Zebrać elitarną grupę przyjaciół i przeprowadzić szale?czy napad wart 100 mln dolarów. Dom i Brian zdają sobie sprawę, że ich jedyną szansą jest unieszkodliwienie skorumpowanego biznesmena pragnącego ich śmierci. Okazuje się, jednak, że nie tylko on jest nimi zainteresowany. Agent federalny Luke Hobbs nigdy nie pudłuje. Kiedy zostaje wyznaczony do pojmania Doma i Briana, wspólnie ze swoim zespołem zrobi wszystko, aby ich dorwać. W Brazylii okazuje się jednak, że Hobbs musi polegać wyłącznie na własnym instynkcie, aby osaczyć swoje ofiary… zanim ktoś inny pierwszy je dopadnie.

Sample
Uwaga! Linki nie zakodowane tylko dla zarejestrowanych użytkowników!

Nie masz konta? Zarejestruj się za darmo!
----------------
Links are not encoded only for registered users only! Plese login or register!




Source: WiKi

EGOFiLES
Uwaga! Linki nie zakodowane tylko dla zarejestrowanych użytkowników!

Nie masz konta? Zarejestruj się za darmo!
----------------
Links are not encoded only for registered users only! Plese login or register!


TURBOBiT
Uwaga! Linki nie zakodowane tylko dla zarejestrowanych użytkowników!

Nie masz konta? Zarejestruj się za darmo!
----------------
Links are not encoded only for registered users only! Plese login or register!


DOWNLOAD LiNKS - 1PART=1000MB:
Bez hasła || 2% danych naprawczych || Można pobierać na przemian
Uwaga! Linki nie zakodowane tylko dla zarejestrowanych użytkowników!

Nie masz konta? Zarejestruj się za darmo!
----------------
Links are not encoded only for registered users only! Plese login or register!




Użytkownik VIP

MarrakechVIP

#1 | Dodany: 16 Grudzień 2012 15:28

brawo
Użytkownik VIP

NonSceneVIP

#2 | Dodany: 16 Grudzień 2012 15:32

taniec
Użytkownik VIP

janek84ccUżytkownik

#3 | Dodany: 16 Grudzień 2012 16:30

podziękował za cała kolekcje ciężko znaleść super robota THX :)
Użytkownik VIP

marcin 18Użytkownik

#4 | Dodany: 17 Grudzień 2012 08:51

zajebista robota
plus dla Ciebie

kolekcja wymiata jakość B dobra

Marrakech
Użytkownik VIP

bieerytTrial Uploader

#5 | Dodany: 16 Grudzień 2013 19:12

Szybcy i wściekli 5 / Fast Five (2011) PL.720p.BluRay.X264-SLiSU / Lektor PL

Opis uploadu:


Format : Matroska
Format version : Version 2
File size : 5.60 GiB
Duration : 2h 10mn
Overall bit rate : 6 149 Kbps
Encoded date : UTC 2012-12-16 12:49:23
Writing application : mkvmerge v4.9.1 ('Ich will') built on Jul 11 2011 23:53:15
Writing library : libebml v1.2.1 + libmatroska v1.1.1

Video
ID : 1
Format : AVC
Format/Info : Advanced Video Codec
Format profile : High@L4.1
Format settings, CABAC : Yes
Format settings, ReFrames : 9 frames
Muxing mode : Header stripping
Codec ID : V_MPEG4/ISO/AVC
Duration : 2h 10mn
Bit rate : 5 700 Kbps
Width : 1 280 pixels
Height : 544 pixels
Display aspect ratio : 2.35:1
Frame rate mode : Constant
Frame rate : 23.976 fps
Color space : YUV
Chroma subsampling : 4:2:0
Bit depth : 8 bits
Scan type : Progressive
Bits/(Pixel*Frame) : 0.341
Stream size : 5.08 GiB (91%)

Audio
ID : 2
Format : AC-3
Format/Info : Audio Coding 3
Mode extension : CM (complete main)
Format settings, Endianness : Big
Muxing mode : Header stripping
Codec ID : A_AC3
Duration : 2h 10mn
Bit rate mode : Constant
Bit rate : 448 Kbps
Channel(s) : 6 channels
Channel positions : Front: L C R, Side: L R, LFE
Sampling rate : 48.0 KHz
Bit depth : 16 bits
Compression mode : Lossy
Stream size : 418 MiB (7%)
Default : Yes
Forced : No

Wielkość uploadu: 5.61 GB
Rodzaj kompresji: rar
Zawartość uploadu: .mkv
Wersja językowa: Lektor PL
Dane naprawcze: 0%
Hasło: brak hasła



Download:


Uwaga! Linki nie zakodowane tylko dla zarejestrowanych użytkowników!

Nie masz konta? Zarejestruj się za darmo!
----------------
Links are not encoded only for registered users only! Plese login or register!


Uwaga! Linki nie zakodowane tylko dla zarejestrowanych użytkowników!

Nie masz konta? Zarejestruj się za darmo!
----------------
Links are not encoded only for registered users only! Plese login or register!

Uwaga! Linki nie zakodowane tylko dla zarejestrowanych użytkowników!

Nie masz konta? Zarejestruj się za darmo!
----------------
Links are not encoded only for registered users only! Plese login or register!
Użytkownik VIP

juankisas1Użytkownik

#6 | Dodany: 18 Marzec 2015 19:46

Szybcy i wściekli 5 / Fast Five (2011) 1080p [Lektor PL/EN] BluRay x264

Dane techniczne:
Format : Matroska at 12,5 Mb/s
Length : 11,3 GB for 2h 10 min. 21s 280ms

Video #0 : AVC at 10,5 Mb/s
Aspect : 1920 x 816 (2.353) at 23.976 fps

Audio #0 : AC-3 at 448 Kb/s
Infos : 6 kanałów, 48,0 KHz
Language : pl

Audio #1 : DTS at 1.509 Kb/s
Infos : 6 kanałów, 48,0 KHz
Language : en

Text #0 : UTF-8
Language : pl


Opis uploadu:
Wielkość Uploadu: 11,3 GB
Rodzaj Kompresji: RAR
Zawartość Uploadu: .mkv, .srt
Wersja Językowa: profesjonalny polski lektor, angielski, polskie napisy
Dane naprawcze: 10%


Download:
(można pobierać zamiennie z serwerów)


Uwaga! Linki nie zakodowane tylko dla zarejestrowanych użytkowników!

Nie masz konta? Zarejestruj się za darmo!
----------------
Links are not encoded only for registered users only! Plese login or register!


Uwaga! Linki nie zakodowane tylko dla zarejestrowanych użytkowników!

Nie masz konta? Zarejestruj się za darmo!
----------------
Links are not encoded only for registered users only! Plese login or register!
Widzisz niedziałające moje linki? Napisz do mnie prywatną wiadomość, a wrzucę ponownie. Nie wrzucam poszczególnych partów, tylko całość od nowa. Pamiętaj napisać, czy to ma być film, czy gra na pc, xbox itd. jdownloader ma problem z wypakowaniem paczki, która była stworzona w najnowszym winrar`ze. Dlatego wypakowuj najnowszym winrar`em, czy freearc.

Informacje

Jeżeli chcesz skomentować artykuł musisz być zarejestrowany na stronie.