EXSite.pl - Portal ze wszystkim Mamy tutaj wszystko

NIE MASZ JESZCZE KONTA? ZAREJESTRUJ SIĘ ZA DARMO!   
Przypomnij hasło X

Pan Popper i jego pingwiny / Mr. Popper's Penguins (2011) MULTi.1080p.BD9.AVC-SLiSU / DUBBiNG PL

Dodał: Marrakech 19 Grudzień 2012 17:39


Pan Popper i jego pingwiny / Mr. Popper's Penguins (2011) MULTi.1080p.BD9.AVC-SLiSU


Pan Popper i jego pingwiny / Mr. Popper's Penguins (2011) MULTi.1080p.BD9.AVC-SLiSU / DUBBiNG PL

Komedia rodzinna w polskiej wersji językowej z Jimem Carreyem w roli biznesmena, który dziedziczy sześć pingwinów i zmuszony zostaje przekształcić swój luksusowy apartament w… zaśnieżoną arktyczną atrakcję. W pozostałych rolach: Carla Gugino (”Noc w muzeum”, ”Mali agenci”) i Angela Lansbury (”Niania”, ”śmierć na Nilu”). Reżyseria: Mark Waters (”Duchy moich byłych”, ”Jak w niebie”).

Pan Popper i jego pingwiny / Mr. Popper's Penguins (2011) MULTi.1080p.BD9.AVC-SLiSU / DUBBiNG PL Pan Popper i jego pingwiny / Mr. Popper's Penguins (2011) MULTi.1080p.BD9.AVC-SLiSU / DUBBiNG PL Pan Popper i jego pingwiny / Mr. Popper's Penguins (2011) MULTi.1080p.BD9.AVC-SLiSU / DUBBiNG PL



SOURCE: CEE.1080p.Bluray

EGOFiLES
Uwaga! Linki nie zakodowane tylko dla zarejestrowanych użytkowników!

Nie masz konta? Zarejestruj się za darmo!
----------------
Links are not encoded only for registered users only! Plese login or register!


TURBOBiT
Uwaga! Linki nie zakodowane tylko dla zarejestrowanych użytkowników!

Nie masz konta? Zarejestruj się za darmo!
----------------
Links are not encoded only for registered users only! Plese login or register!


DOWNLOAD LiNKS - 1PART=900MB:
Bez hasła || 2% danych naprawczych || Można pobierać na przemian
Uwaga! Linki nie zakodowane tylko dla zarejestrowanych użytkowników!

Nie masz konta? Zarejestruj się za darmo!
----------------
Links are not encoded only for registered users only! Plese login or register!



Użytkownik VIP

MarrakechVIP

#1 | Dodany: 19 Grudzień 2012 17:40

brawo
Użytkownik VIP

ziucio30Użytkownik

#2 | Dodany: 19 Grudzień 2012 17:46

Pan Popper i jego pingwiny / Mr. Popper's Penguins (2011) MULTi.1080p.BD9.AVC-SLiSU / LEKTOR PL

Dane techniczne:
Format : BDAV
Format/Info : Blu-ray Video
File size : 7.45 GiB
Duration : 1h 34mn
Overall bit rate mode : Variable
Overall bit rate : 11.3 Mbps
Maximum Overall bit rate : 35.5 Mbps

Video
ID : 4113 (0x1011)
Menu ID : 1 (0x1)
Format : AVC
Format/Info : Advanced Video Codec
Format profile : High@L4.0
Format settings, CABAC : Yes
Format settings, ReFrames : 2 frames
Format settings, GOP : M=4, N=24
Codec ID : 27
Duration : 1h 34mn
Bit rate mode : Variable
Bit rate : 9 550 Kbps
Maximum bit rate : 15.0 Mbps
Width : 1 920 pixels
Height : 1 080 pixels
Display aspect ratio : 16:9
Frame rate : 23.976 fps
Color space : YUV
Chroma subsampling : 4:2:0
Bit depth : 8 bits
Scan type : Progressive

Audio #1
ID : 4352 (0x1100)
Menu ID : 1 (0x1)
Format : AC-3
Format/Info : Audio Coding 3
Mode extension : CM (complete main)
Format settings, Endianness : Big
Codec ID : 129
Duration : 1h 34mn
Bit rate mode : Constant
Bit rate : 448 Kbps
Channel(s) : 6 channels
Channel positions : Front: L C R, Side: L R, LFE
Sampling rate : 48.0 KHz
Bit depth : 16 bits
Compression mode : Lossy
Stream size : 302 MiB (4%)
Language : Polish

Audio #2
ID : 4353 (0x1101)
Menu ID : 1 (0x1)
Format : AC-3
Format/Info : Audio Coding 3
Mode extension : CM (complete main)
Format settings, Endianness : Big
Codec ID : 129
Duration : 1h 34mn
Bit rate mode : Constant
Bit rate : 640 Kbps
Channel(s) : 6 channels
Channel positions : Front: L C R, Side: L R, LFE
Sampling rate : 48.0 KHz
Bit depth : 16 bits
Compression mode : Lossy
Stream size : 432 MiB (6%)
Language : English

Text #1
ID : 4608 (0x1200)
Menu ID : 1 (0x1)
Format : PGS
Codec ID : 144
Language : Polish

Text #2
ID : 4609 (0x1201)
Menu ID : 1 (0x1)
Format : PGS
Codec ID : 144
Language : English


Linki:
Uwaga! Linki nie zakodowane tylko dla zarejestrowanych użytkowników!

Nie masz konta? Zarejestruj się za darmo!
----------------
Links are not encoded only for registered users only! Plese login or register!

Informacje

Jeżeli chcesz skomentować artykuł musisz być zarejestrowany na stronie.