EXSite.pl - Portal ze wszystkim Mamy tutaj wszystko

NIE MASZ JESZCZE KONTA? ZAREJESTRUJ SIĘ ZA DARMO!   
Przypomnij hasło X

Druhny / Bridesmaids (2011) MULTi.1080p.BD9.AVC-SLiSU / Lektor PL

Dodał: Marrakech 20 Grudzień 2012 07:17


Druhny / Bridesmaids (2011) MULTi.1080p.BD9.AVC-SLiSU


Druhny / Bridesmaids (2011) MULTi.1080p.BD9.AVC-SLiSU / Lektor PL

świetna komedia wyprodukowana przez Judda Apatowa. To "Hangover" dla kobiet. Film opowiada o przedślubnych perypetiach druhen, które wybierają się do Las Vegas. Mnóstwo znakomitych dialogów i fantastyczna muzyka zapewnią znakomitą wakacyjną rozrywkę.

Druhny / Bridesmaids (2011) MULTi.1080p.BD9.AVC-SLiSU / Lektor PL Druhny / Bridesmaids (2011) MULTi.1080p.BD9.AVC-SLiSU / Lektor PL Druhny / Bridesmaids (2011) MULTi.1080p.BD9.AVC-SLiSU / Lektor PL

DANE TECHNiCZNE / RELEASE .NFO



SOURCE: Blu-Ray CEE

TURBOBiT
Uwaga! Linki nie zakodowane tylko dla zarejestrowanych użytkowników!

Nie masz konta? Zarejestruj się za darmo!
----------------
Links are not encoded only for registered users only! Plese login or register!


EGOFiLES
Uwaga! Linki nie zakodowane tylko dla zarejestrowanych użytkowników!

Nie masz konta? Zarejestruj się za darmo!
----------------
Links are not encoded only for registered users only! Plese login or register!


DOWNLOAD LiNKS - 1PART=900MB:
Bez hasła || 2% danych naprawczych || Można pobierać na przemian
Uwaga! Linki nie zakodowane tylko dla zarejestrowanych użytkowników!

Nie masz konta? Zarejestruj się za darmo!
----------------
Links are not encoded only for registered users only! Plese login or register!



Użytkownik VIP

MarrakechVIP

#1 | Dodany: 20 Grudzień 2012 07:17

brawo
Użytkownik VIP

ziucio30Użytkownik

#2 | Dodany: 20 Grudzień 2012 10:06

Druhny / Bridesmaids (2011) MULTi.1080p.BD9.AVC-SLiSU / Lektor PL

Dane Techniczne:
ormat : BDAV
Format/Info : Blu-ray Video
File size : 7.40 GiB
Duration : 2h 4mn
Overall bit rate mode : Variable
Overall bit rate : 8 479 Kbps
Maximum Overall bit rate : 35.5 Mbps

Video
ID : 4113 (0x1011)
Menu ID : 1 (0x1)
Format : AVC
Format/Info : Advanced Video Codec
Format profile : High@L4.0
Format settings, CABAC : Yes
Format settings, ReFrames : 2 frames
Codec ID : 27
Duration : 2h 4mn
Bit rate mode : Variable
Bit rate : 6 829 Kbps
Maximum bit rate : 15.0 Mbps
Width : 1 920 pixels
Height : 1 080 pixels
Display aspect ratio : 16:9
Frame rate : 23.976 fps
Color space : YUV
Chroma subsampling : 4:2:0
Bit depth : 8 bits
Scan type : Progressive

Audio #1
ID : 4352 (0x1100)
Menu ID : 1 (0x1)
Format : AC-3
Format/Info : Audio Coding 3
Mode extension : CM (complete main)
Format settings, Endianness : Big
Codec ID : 129
Duration : 2h 4mn
Bit rate mode : Constant
Bit rate : 640 Kbps
Channel(s) : 6 channels
Channel positions : Front: L C R, Side: L R, LFE
Sampling rate : 48.0 KHz
Bit depth : 16 bits
Compression mode : Lossy
Stream size : 572 MiB (8%)
Language : English

Audio #2
ID : 4353 (0x1101)
Menu ID : 1 (0x1)
Format : AC-3
Format/Info : Audio Coding 3
Mode extension : CM (complete main)
Format settings, Endianness : Big
Codec ID : 129
Duration : 2h 4mn
Bit rate mode : Constant
Bit rate : 448 Kbps
Channel(s) : 6 channels
Channel positions : Front: L C R, Side: L R, LFE
Sampling rate : 48.0 KHz
Bit depth : 16 bits
Compression mode : Lossy
Stream size : 400 MiB (5%)
Language : Polish

Text #1
ID : 4608 (0x1200)
Menu ID : 1 (0x1)
Format : PGS
Codec ID : 144
Language : English

Text #2
ID : 4609 (0x1201)
Menu ID : 1 (0x1)
Format : PGS
Codec ID : 144
Language : Polish


Linki:
Uwaga! Linki nie zakodowane tylko dla zarejestrowanych użytkowników!

Nie masz konta? Zarejestruj się za darmo!
----------------
Links are not encoded only for registered users only! Plese login or register!
Użytkownik VIP

wgo89Użytkownik

#3 | Dodany: 20 Grudzień 2012 16:36

Bardzo kiepski film. Nie polecam

Informacje

Jeżeli chcesz skomentować artykuł musisz być zarejestrowany na stronie.