EXSite.pl - Portal ze wszystkim Mamy tutaj wszystko

NIE MASZ JESZCZE KONTA? ZAREJESTRUJ SIĘ ZA DARMO!   
Przypomnij hasło X

Cichy dom / The Silent House (2011) PL.1080p.BluRay.x264.AC3-LLO / Lektor PL

Dodał: LILILILO 8 Styczeń 2013 10:05


Cichy dom / The Silent House (2011) PL.1080p.BluRay.x264.AC3-LLO / Lektor PL


czas trwania: 1 godz. 25 min.
gatunek: Horror
premiera: 21 stycznia 2011 (świat)
produkcja: Francja, USA
reżyseria: Chris Kentis, Laura Lau
scenariusz: Laura Lau

Młoda kobieta trafia do domu nad jeziorem. Bez elektryczności i kontaktu ze światem zewnętrznym zaczyna dostrzegać otaczające ją coraz bardziej przerażające i krwawe wydarzenia.


Source: HDC / DS (thx)

Sample
Uwaga! Linki nie zakodowane tylko dla zarejestrowanych użytkowników!

Nie masz konta? Zarejestruj się za darmo!
----------------
Links are not encoded only for registered users only! Plese login or register!


Uwaga! Linki nie zakodowane tylko dla zarejestrowanych użytkowników!

Nie masz konta? Zarejestruj się za darmo!
----------------
Links are not encoded only for registered users only! Plese login or register!



Cichy dom / The Silent House (2011) PL.1080p.BluRay.x264.AC3-LLO / Lektor PL

Cichy dom / The Silent House (2011) PL.1080p.BluRay.x264.AC3-LLO / Lektor PL

Użytkownik VIP

LILILILO VIP Uploader

#1 | Dodany: 8 Styczeń 2013 10:05

ok
Użytkownik VIP

ziucio30Użytkownik

#2 | Dodany: 8 Styczeń 2013 18:06

Cichy dom / The Silent House (2011) PL.1080p.BluRay.x264.AC3-LLO / Lektor PL

Dane techniczne:
Format : Matroska
Format version : Version 2
File size : 5.90 GiB
Duration : 1h 25mn
Overall bit rate : 9 836 Kbps
Encoded date : UTC 2013-01-08 08:47:17
Writing application : mkvmerge v5.8.0 ('No Sleep / Pillow') built on Sep 2 2012 15:37:04
Writing library : libebml v1.2.3 + libmatroska v1.3.0

Video
ID : 1
Format : AVC
Format/Info : Advanced Video Codec
Format profile : High@L4.1
Format settings, CABAC : Yes
Format settings, ReFrames : 4 frames
Codec ID : V_MPEG4/ISO/AVC
Duration : 1h 25mn
Bit rate : 9 400 Kbps
Width : 1 920 pixels
Height : 1 040 pixels
Display aspect ratio : 1.85:1
Frame rate mode : Constant
Frame rate : 23.976 fps
Color space : YUV
Chroma subsampling : 4:2:0
Bit depth : 8 bits
Scan type : Progressive

Audio
ID : 2
Format : AC-3
Format/Info : Audio Coding 3
Mode extension : CM (complete main)
Format settings, Endianness : Big
Codec ID : A_AC3
Duration : 1h 25mn
Bit rate mode : Constant
Bit rate : 448 Kbps
Channel(s) : 6 channels
Channel positions : Front: L C R, Side: L R, LFE
Sampling rate : 48.0 KHz
Bit depth : 16 bits
Compression mode : Lossy
Stream size : 275 MiB (5%)
Language : Polish
Default : Yes
Forced : No


Linki:
Uwaga! Linki nie zakodowane tylko dla zarejestrowanych użytkowników!

Nie masz konta? Zarejestruj się za darmo!
----------------
Links are not encoded only for registered users only! Plese login or register!


Cichy dom / The Silent House (2011) PL.720p.BluRay.x264.AC3-LLO / Lektor PL

Dane Techniczne:
Format : Matroska
Format version : Version 2
File size : 3.71 GiB
Duration : 1h 25mn
Overall bit rate : 6 184 Kbps
Encoded date : UTC 2013-01-08 08:30:30
Writing application : mkvmerge v5.8.0 ('No Sleep / Pillow') built on Sep 2 2012 15:37:04
Writing library : libebml v1.2.3 + libmatroska v1.3.0

Video
ID : 1
Format : AVC
Format/Info : Advanced Video Codec
Format profile : High@L4.1
Format settings, CABAC : Yes
Format settings, ReFrames : 9 frames
Codec ID : V_MPEG4/ISO/AVC
Duration : 1h 25mn
Bit rate : 5 770 Kbps
Width : 1 280 pixels
Height : 694 pixels
Display aspect ratio : 1.85:1
Frame rate mode : Constant
Frame rate : 23.976 fps
Color space : YUV
Chroma subsampling : 4:2:0
Bit depth : 8 bits
Scan type : Progressive

Audio
ID : 2
Format : AC-3
Format/Info : Audio Coding 3
Mode extension : CM (complete main)
Format settings, Endianness : Big
Codec ID : A_AC3
Duration : 1h 25mn
Bit rate mode : Constant
Bit rate : 448 Kbps
Channel(s) : 6 channels
Channel positions : Front: L C R, Side: L R, LFE
Sampling rate : 48.0 KHz
Bit depth : 16 bits
Compression mode : Lossy
Stream size : 275 MiB (7%)
Language : Polish
Default : Yes
Forced : No


Linki:
Uwaga! Linki nie zakodowane tylko dla zarejestrowanych użytkowników!

Nie masz konta? Zarejestruj się za darmo!
----------------
Links are not encoded only for registered users only! Plese login or register!

Informacje

Jeżeli chcesz skomentować artykuł musisz być zarejestrowany na stronie.