EXSite.pl - Portal ze wszystkim Mamy tutaj wszystko

NIE MASZ JESZCZE KONTA? ZAREJESTRUJ SIĘ ZA DARMO!   
Przypomnij hasło X

Załoga G / G-Force (2009) Blu-ray.CEE.1080p.AVC.DD5.1-d69a74 / Dubbing i Napisy PL

Dodał: djkazik 10 Styczeń 2013 10:39



Załoga G / G-Force (2009) Blu-ray.CEE.1080p.AVC.DD5.1-d69a74 / Dubbing i Napisy PL

Załoga G / G-Force (2009) Blu-ray.CEE.1080p.AVC.DD5.1-d69a74 / Dubbing i Napisy PL

Załoga G / G-Force (2009) Blu-ray.CEE.1080p.AVC.DD5.1-d69a74 / Dubbing i Napisy PL

Załoga G / G-Force (2009) Blu-ray.CEE.1080p.AVC.DD5.1-d69a74 / Dubbing i Napisy PL

###Info:###

gatunek: AnimacjaPrzygodowy
produkcja: USA
premiera: 14 sierpnia 2009 (Polska) 24 lipca 2009 (świat)
reżyseria: Hoyt Yeatman
scenariusz: Cormac WibberleyMarianne Wibberley

###Opis:###

Zespół wyszkolonych tajnych agentów - świnek morskich – podejmuje się misji dla rządu Stanów Zjednoczonych. Mają powstrzymać pewnego multimilionera, który planuje zawładnąć światem za pomocą odpowiednio zaprogramowanego sprzętu gospodarstwa domowego.

###Dane Techniczne:###

Disc Size:      45 535 505 466 bytes
Protection:     AACS
BD-Java:        Yes
D-BOX Motion:   Yes
BDInfo:         0.5.3

PLAYLIST REPORT:

Name:                   00034.MPLS
Length:                 1:28:16 (h:m:s)
Size:                   22 682 744 832 bytes
Total Bitrate:          34,26 Mbps

(*) Indicates included stream hidden by this playlist.

VIDEO:

Codec                   Bitrate             Description    
-----                   -------             -----------    
MPEG-4 AVC Video        22621 kbps          1080p / 23,976 fps / 16:9 / High Profile 4.1
* MPEG-4 AVC Video      571 kbps            480p / 23,976 fps / 4:3 / High Profile 3.2

AUDIO:

Codec                           Language        Bitrate         Description    
-----                           --------        -------         -----------    
DTS-HD Master Audio             English         4102 kbps       5.1 / 48 kHz / 4102 kbps / 24-bit (DTS Core: 5.1 / 48 kHz / 1509 kbps / 24-bit)
* Dolby Digital Audio           English         640 kbps        5.1 / 48 kHz / 640 kbps / DN -4dB
Dolby Digital Audio             Bulgarian       640 kbps        5.1 / 48 kHz / 640 kbps
Dolby Digital Audio             Hebrew          640 kbps        5.1 / 48 kHz / 640 kbps
Dolby Digital Audio             Hungarian       640 kbps        5.1 / 48 kHz / 640 kbps
Dolby Digital Audio             Polish          640 kbps        5.1 / 48 kHz / 640 kbps
Dolby Digital Audio             Russian         640 kbps        5.1 / 48 kHz / 640 kbps
Dolby Digital Audio             Ukrainian       640 kbps        5.1 / 48 kHz / 640 kbps

SUBTITLES:

Codec                           Language        Bitrate         Description    
-----                           --------        -------         -----------    
Presentation Graphics           English         37,692 kbps                    
Presentation Graphics           English         41,140 kbps                    
* Presentation Graphics         English         2,430 kbps                      
Presentation Graphics           Bulgarian       33,711 kbps                    
Presentation Graphics           Bulgarian       1,504 kbps                      
Presentation Graphics           Hebrew          24,168 kbps                    
Presentation Graphics           Hebrew          0,857 kbps                      
Presentation Graphics           Hungarian       38,820 kbps                    
Presentation Graphics           Hungarian       1,478 kbps                      
Presentation Graphics           Polish          35,745 kbps                    
Presentation Graphics           Polish          0,914 kbps                      
Presentation Graphics           Romanian        33,252 kbps                    
Presentation Graphics           Russian         35,975 kbps                    
Presentation Graphics           Russian         1,469 kbps                      
Presentation Graphics           Slovenian       27,886 kbps                    
Presentation Graphics           Ukrainian       34,645 kbps                    
Presentation Graphics           Ukrainian       1,365 kbps                      

FILES:

Name            Time In         Length          Size            Total Bitrate  
----            -------         ------          ----            -------------  
00325.M2TS      0:00:00.000     0:02:50.378     687 273 984     32 270          
00278.M2TS      0:02:50.378     0:01:16.367     338 214 912     35 430          
00279.M2TS      0:04:06.746     0:01:21.831     363 884 544     35 574          
00280.M2TS      0:05:28.578     0:08:15.995     2 112 190 464   34 068          
00281.M2TS      0:13:44.573     0:01:44.187     460 670 976     35 372          
00282.M2TS      0:15:28.761     0:04:03.201     1 080 981 504   35 558          
00283.M2TS      0:19:31.962     0:02:54.966     793 085 952     36 262          
00285.M2TS      0:22:26.928     0:01:19.579     350 453 760     35 231          
00335.M2TS      0:23:46.508     0:01:46.106     443 535 360     33 441          
00336.M2TS      0:25:32.614     0:01:44.395     437 520 384     33 528          
00337.M2TS      0:27:17.010     0:01:34.552     415 936 512     35 192          
00338.M2TS      0:28:51.563     0:02:10.922     577 566 720     35 292          
00339.M2TS      0:31:02.485     0:02:10.213     559 017 984     34 345          
00340.M2TS      0:33:12.698     0:02:13.842     534 128 640     31 926          
00287.M2TS      0:35:26.540     0:08:14.702     2 092 800 000   33 843          
00288.M2TS      0:43:41.243     0:03:02.599     815 050 752     35 709          
00289.M2TS      0:46:43.842     0:06:00.610     1 666 916 352   36 980          
00290.M2TS      0:52:44.452     0:03:52.607     1 092 956 160   37 590          
00291.M2TS      0:56:37.060     0:05:06.514     1 424 627 712   37 183          
00292.M2TS      1:01:43.574     0:02:44.789     695 193 600     33 749          
00293.M2TS      1:04:28.364     0:05:01.801     1 324 400 640   35 107          
00294.M2TS      1:09:30.165     0:01:53.780     515 131 392     36 219          
00295.M2TS      1:11:23.946     0:03:01.639     845 494 272     37 238          
00296.M2TS      1:14:25.585     0:06:38.481     1 759 782 912   35 330          
00297.M2TS      1:21:04.067     0:01:07.067     296 601 600     35 380          
00314.M2TS      1:22:11.134     0:06:05.198     999 327 744     21 891



Można ściągać naprzemian!
###2GB PARTS###

Uwaga! Linki nie zakodowane tylko dla zarejestrowanych użytkowników!

Nie masz konta? Zarejestruj się za darmo!
----------------
Links are not encoded only for registered users only! Plese login or register!


Uwaga! Linki nie zakodowane tylko dla zarejestrowanych użytkowników!

Nie masz konta? Zarejestruj się za darmo!
----------------
Links are not encoded only for registered users only! Plese login or register!


Uwaga! Linki nie zakodowane tylko dla zarejestrowanych użytkowników!

Nie masz konta? Zarejestruj się za darmo!
----------------
Links are not encoded only for registered users only! Plese login or register!


Użytkownik VIP

XPIHbUżytkownik

#1 | Dodany: 14 Listopad 2013 15:30

linki

linki

Informacje

Jeżeli chcesz skomentować artykuł musisz być zarejestrowany na stronie.