EXSite.pl - Portal ze wszystkim Mamy tutaj wszystko

NIE MASZ JESZCZE KONTA? ZAREJESTRUJ SIĘ ZA DARMO!   
Przypomnij hasło X

4:44. Ostatni dzie? na Ziemi / 4:44 Last Day on Earth (2011) PL.720p.BluRay.x264.AC3-LLO / Lektor PL

Dodał: LILILILO 16 Styczeń 2013 21:03


4:44. Ostatni dzie? na Ziemi / 4:44 Last Day on Earth (2011) PL.720p.BluRay.x264.AC3-LLO / Lektor PL


Gdy ludzkość w przerażeniu i niedowierzaniu odlicza minuty, jakie dzielą ją od upadku cywilizacji, para kochanków - słynny aktor i ceniona malarka - zaszywa się w luksusowym nowojorskim apartamencie, by oddać się namiętnemu pożegnaniu z życiem.


Source: WiKi / lib32 (thx)

Sample
Uwaga! Linki nie zakodowane tylko dla zarejestrowanych użytkowników!

Nie masz konta? Zarejestruj się za darmo!
----------------
Links are not encoded only for registered users only! Plese login or register!


Uwaga! Linki nie zakodowane tylko dla zarejestrowanych użytkowników!

Nie masz konta? Zarejestruj się za darmo!
----------------
Links are not encoded only for registered users only! Plese login or register!



4:44. Ostatni dzie? na Ziemi / 4:44 Last Day on Earth (2011) PL.720p.BluRay.x264.AC3-LLO / Lektor PL

4:44. Ostatni dzie? na Ziemi / 4:44 Last Day on Earth (2011) PL.720p.BluRay.x264.AC3-LLO / Lektor PL

Użytkownik VIP

LILILILO VIP Uploader

#1 | Dodany: 16 Styczeń 2013 21:04

ok
Użytkownik VIP

GHunter Użytkownik

#2 | Dodany: 16 Styczeń 2013 21:05

;-)
Użytkownik VIP

ja to ten złyUżytkownik

#3 | Dodany: 16 Styczeń 2013 21:08

.Zawsze Spoko!
Użytkownik VIP

cacumenUżytkownik

#4 | Dodany: 16 Styczeń 2013 21:09

ok brawo thx
Użytkownik VIP

limaczqUżytkownik

#5 | Dodany: 16 Styczeń 2013 21:09

ok
Użytkownik VIP

ziucio30Użytkownik

#6 | Dodany: 17 Styczeń 2013 13:37

4:44. Ostatni dzie? na Ziemi / 4:44 Last Day on Earth (2011) MULTi.1080p.BluRay.x264.DTS.AC3-LLO / Lektor PL

Dane Techniczne:
Format : Matroska
Format version : Version 2
File size : 6.81 GiB
Duration : 1h 21mn
Overall bit rate : 11.9 Mbps
Movie name : LLO
Encoded date : UTC 2013-01-16 19:56:05
Writing application : mkvmerge v5.8.0 ('No Sleep / Pillow') built on Sep 2 2012 15:37:04
Writing library : libebml v1.2.3 + libmatroska v1.3.0

Video
ID : 1
Format : AVC
Format/Info : Advanced Video Codec
Format profile : High@L4.1
Format settings, CABAC : Yes
Format settings, ReFrames : 4 frames
Codec ID : V_MPEG4/ISO/AVC
Duration : 1h 21mn
Bit rate : 9 962 Kbps
Width : 1 920 pixels
Height : 1 080 pixels
Display aspect ratio : 16:9
Frame rate mode : Constant
Frame rate : 23.976 fps
Color space : YUV
Chroma subsampling : 4:2:0
Bit depth : 8 bits
Scan type : Progressive

Audio #1
ID : 2
Format : AC-3
Format/Info : Audio Coding 3
Mode extension : CM (complete main)
Format settings, Endianness : Big
Codec ID : A_AC3
Duration : 1h 21mn
Bit rate mode : Constant
Bit rate : 448 Kbps
Channel(s) : 6 channels
Channel positions : Front: L C R, Side: L R, LFE
Sampling rate : 48.0 KHz
Bit depth : 16 bits
Compression mode : Lossy
Stream size : 262 MiB (4%)
Language : Polish
Default : Yes
Forced : No

Audio #2
ID : 3
Format : DTS
Format/Info : Digital Theater Systems
Codec ID : A_DTS
Duration : 1h 21mn
Bit rate mode : Constant
Bit rate : 1 510 Kbps
Channel(s) : 6 channels
Channel positions : Front: L C R, Side: L R, LFE
Sampling rate : 48.0 KHz
Bit depth : 24 bits
Compression mode : Lossy
Stream size : 884 MiB (13%)
Language : English
Default : No
Forced : No


Linki:
Uwaga! Linki nie zakodowane tylko dla zarejestrowanych użytkowników!

Nie masz konta? Zarejestruj się za darmo!
----------------
Links are not encoded only for registered users only! Plese login or register!



4:44. Ostatni dzie? na Ziemi / 4:44 Last Day on Earth (2011) PL.720p.BluRay.x264.AC3-LLO / Lektor PL

Dane Techniczne:
Format : Matroska
Format version : Version 2
File size : 3.76 GiB
Duration : 1h 21mn
Overall bit rate : 6 587 Kbps
Encoded date : UTC 2013-01-16 19:40:42
Writing application : mkvmerge v5.8.0 ('No Sleep / Pillow') built on Sep 2 2012 15:37:04
Writing library : libebml v1.2.3 + libmatroska v1.3.0

Video
ID : 1
Format : AVC
Format/Info : Advanced Video Codec
Format profile : High@L4.1
Format settings, CABAC : Yes
Format settings, ReFrames : 9 frames
Codec ID : V_MPEG4/ISO/AVC
Bit rate : 6 144 Kbps
Width : 1 280 pixels
Height : 720 pixels
Display aspect ratio : 16:9
Frame rate mode : Variable
Original frame rate : 23.976 fps
Color space : YUV
Chroma subsampling : 4:2:0
Bit depth : 8 bits
Scan type : Progressive

Audio
ID : 2
Format : AC-3
Format/Info : Audio Coding 3
Mode extension : CM (complete main)
Format settings, Endianness : Big
Codec ID : A_AC3
Duration : 1h 21mn
Bit rate mode : Constant
Bit rate : 448 Kbps
Channel(s) : 6 channels
Channel positions : Front: L C R, Side: L R, LFE
Sampling rate : 48.0 KHz
Bit depth : 16 bits
Compression mode : Lossy
Stream size : 262 MiB (7%)
Language : Polish
Default : Yes
Forced : No


Linki:
Uwaga! Linki nie zakodowane tylko dla zarejestrowanych użytkowników!

Nie masz konta? Zarejestruj się za darmo!
----------------
Links are not encoded only for registered users only! Plese login or register!

Informacje

Jeżeli chcesz skomentować artykuł musisz być zarejestrowany na stronie.