EXSite.pl - Portal ze wszystkim Mamy tutaj wszystko

NIE MASZ JESZCZE KONTA? ZAREJESTRUJ SIĘ ZA DARMO!   
Przypomnij hasło X

Drive (2011) PL.720p.BluRay.x264.AC3-LLO | Lektor PL

Dodał: ampatinis 11 Luty 2013 19:11


Drive (2011) PL.720p.BluRay.x264.AC3-LLO | Lektor PL

Drive (2011) PL.720p.BluRay.x264.AC3-LLO | Lektor PL

Drive (2011) PL.720p.BluRay.x264.AC3-LLO | Lektor PL

Reżyseria: Nicolas Winding Refn
Scenariusz: Logan Lerman, Katey Sagal
Premiera: 16 września 2011 (Polska), 20 maja 2011 (świat)
Gatunek: Akcja
Czas trwania: 1 godz. 40 min.

Są mężczyźni, którzy wolność mają wpisaną w DNA. To oni jednym spojrzeniem potrafią złamać kobiece serce i sprawiają, że nie można o nich zapomnieć. Przyciągają jak magnes tajemniczym uśmiechem i obietnicą niebezpiecznej przygody. Takim mężczyzną jest Driver, chłopak, który za dnia pracuje jako kaskader, a nocami wynajmuje się jako kierowca gangsterów. Żyje, balansując na cienkiej granicy między rozsądkiem a brawurą. Do dnia, gdy pozna Irene i straci dla niej głowę. Nowa dziewczyna, wyglądająca jak anioł, rozpęta wokół niego prawdziwe piekło. Ich "love story" pisane będzie czystą adrenaliną. Trzymający w napięciu jak "Bullitt", rozgrzeje publiczność nie tylko rykiem silników, ale przede wszystkim gorączką uczuć.


General
Unique ID : 226195497311807481396505541387946292357 (0xAA2BAB0C42CDA321AACE9D7D981BF485)
Complete name : Drive.2011.PL.720p.BluRay.x264.AC3-LLO.mkv
Format : Matroska
Format version : Version 2
File size : 3.57 GiB
Duration : 1h 40mn
Overall bit rate : 5 074 Kbps
Encoded date : UTC 2012-01-18 19:42:31
Writing application : mkvmerge v4.9.1 ('Ich will') built on Jul 11 2011 23:53:15
Writing library : libebml v1.2.1 + libmatroska v1.1.1

Video
ID : 1
Format : AVC
Format/Info : Advanced Video Codec
Format profile : High@L4.1
Format settings, CABAC : Yes
Format settings, ReFrames : 9 frames
Muxing mode : Header stripping
Codec ID : V_MPEG4/ISO/AVC
Duration : 1h 40mn
Bit rate : 4 697 Kbps
Width : 1 280 pixels
Height : 544 pixels
Display aspect ratio : 2.35:1
Frame rate : 23.976 fps
Color space : YUV
Chroma subsampling : 4:2:0
Bit depth : 8 bits
Scan type : Progressive
Bits/(Pixel*Frame) : 0.281
Stream size : 3.23 GiB (90%)
Writing library : x264 core 115 r1995 c1e60b9
Encoding settings : cabac=1 / ref=9 / deblock=1:-3:-3 / analyse=0x3:0x113 / me=umh / subme=10 / psy=1 / psy_rd=1.00:0.00 / mixed_ref=1 / me_range=32 / chroma_me=1 / trellis=2 / 8x8dct=1 / cqm=0 / deadzone=21,11 / fast_pskip=0 / chroma_qp_offset=-4 / threads=12 / sliced_threads=0 / nr=0 / decimate=0 / interlaced=0 / bluray_compat=0 / constrained_intra=0 / bframes=8 / b_pyramid=2 / b_adapt=2 / b_bias=0 / direct=3 / weightb=1 / open_gop=0 / weightp=2 / keyint=250 / keyint_min=23 / scenecut=40 / intra_refresh=0 / rc_lookahead=50 / rc=2pass / mbtree=1 / bitrate=4697 / ratetol=1.0 / qcomp=0.60 / qpmin=0 / qpmax=69 / qpstep=4 / cplxblur=20.0 / qblur=0.5 / ip_ratio=1.40 / aq=1:0.80
Language : English
Default : Yes
Forced : No

Audio
ID : 2
Format : AC-3
Format/Info : Audio Coding 3
Mode extension : CM (complete main)
Muxing mode : Header stripping
Codec ID : A_AC3
Duration : 1h 40mn
Bit rate mode : Constant
Bit rate : 384 Kbps
Channel(s) : 6 channels
Channel positions : Front: L C R, Side: L R, LFE
Sampling rate : 48.0 KHz
Bit depth : 16 bits
Compression mode : Lossy
Delay relative to video : 33s 200ms
Stream size : 277 MiB (8%)
Default : Yes
Forced : No


Drive (2011) PL.720p.BluRay.x264.AC3-LLO | Lektor PL

Drive (2011) PL.720p.BluRay.x264.AC3-LLO | Lektor PL Drive (2011) PL.720p.BluRay.x264.AC3-LLO | Lektor PL

Drive (2011) PL.720p.BluRay.x264.AC3-LLO | Lektor PL
Uwaga! Linki nie zakodowane tylko dla zarejestrowanych użytkowników!

Nie masz konta? Zarejestruj się za darmo!
----------------
Links are not encoded only for registered users only! Plese login or register!



Użytkownik VIP

NonSceneVIP

#1 | Dodany: 11 Luty 2013 19:32

wink
Użytkownik VIP

krychubbUżytkownik

#2 | Dodany: 11 Luty 2013 19:38

hmmm czyżby dubel lol

Informacje

Jeżeli chcesz skomentować artykuł musisz być zarejestrowany na stronie.