EXSite.pl - Portal ze wszystkim Mamy tutaj wszystko

NIE MASZ JESZCZE KONTA? ZAREJESTRUJ SIĘ ZA DARMO!   
Przypomnij hasło X

Parada wielkanocna / Easter Parade (1948) 720p.BluRay.x264-SiNNERS

Dodał: Marrakech 11 Luty 2013 19:38


Parada wielkanocna / Easter Parade (1948) 720p.BluRay.x264-SiNNERS


Parada wielkanocna / Easter Parade (1948) 720p.BluRay.x264-SiNNERS

Akcja musicalu rozpoczyna się w Wielkanoc 1912 roku. Nowojorski tancerz Don Hewes rozstaje się ze swoją partnerką Nadine Hale, która wyjeżdża na kontrakt do Chicago. Rozgoryczony Don siedzi w barze z Johnnym. Wreszcie idzie o zakład z przyjacielem, że nawet z miernej tancereczki można uczynić artystkę na miarę Nadine.

DANE TECHNiCZNE / RELEASE .NFO

Format : Matroska
File size : 4.37 GiB
Duration : 1h 43mn
Overall bit rate : 6 053 Kbps

~~Video~~
Format : AVC
Format profile : High@L4.1
Codec ID : V_MPEG4/ISO/AVC
Duration : 1h 43mn
Bit rate : 5 284 Kbps
Width : 992 pixels
Height : 720 pixels
Display aspect ratio : 1.378
Frame rate : 23.976 fps
Bit depth : 8 bits
Scan type : Progressive
Bits/(Pixel*Frame) : 0.309
Stream size : 3.74 GiB (86%)
Language : English

~~Audio~~
Format : DTS
Codec ID : A_DTS
Duration : 1h 43mn
Bit rate mode : Constant
Bit rate : 754 Kbps
Channel(s) : 1 channel
Channel positions : Front: C
Sampling rate : 48.0 KHz
Bit depth : 24 bits
Compression mode : Lossy
Stream size : 558 MiB (12%)
Language : English


Waga: 4.37gb
Zawartość Uploadu: Plik .mkv
Wersja Językowa: eng
Dane Naprawcze: 2%
Hasło: Brak


DOWNLOAD LiNKS - 1PART=900MB:
Bez hasła || 2% danych naprawczych || Można pobierać na przemian
Uwaga! Linki nie zakodowane tylko dla zarejestrowanych użytkowników!

Nie masz konta? Zarejestruj się za darmo!
----------------
Links are not encoded only for registered users only! Plese login or register!



Użytkownik VIP

MarrakechVIP

#1 | Dodany: 11 Luty 2013 19:38

brawo

Informacje

Jeżeli chcesz skomentować artykuł musisz być zarejestrowany na stronie.