EXSite.pl - Portal ze wszystkim Mamy tutaj wszystko

NIE MASZ JESZCZE KONTA? ZAREJESTRUJ SIĘ ZA DARMO!   
Przypomnij hasło X

Fun Size (2012) MULTi.1080p.BluRay.x264.DTS.AC3-LLO / Lektor PL

Dodał: LILILILO 26 Luty 2013 02:39


Fun Size (2012) MULTi.1080p.BluRay.x264.DTS.AC3-LLO / Lektor PL


Przedstawiamy zwiastun filmu z Victorią Justice. "Fun Size", to komedia, która rozgrywa się w noc Halloween. Film jest debiutem reżyserskim Joshua Schwartza, producenta taki seriali jak "Plotkara", czy "Życia na fali". W noc święta Halloween nastolatka musi eskortować młodszego brata w zbiórce cukierków. W ferworze wesołych zabaw chłopiec nagle znika. Siostra musi odnaleźć brata zanim wzejdzie sło?ce.


Source: SPARKS / DS (thx)

Sample
Uwaga! Linki nie zakodowane tylko dla zarejestrowanych użytkowników!

Nie masz konta? Zarejestruj się za darmo!
----------------
Links are not encoded only for registered users only! Plese login or register!


Uwaga! Linki nie zakodowane tylko dla zarejestrowanych użytkowników!

Nie masz konta? Zarejestruj się za darmo!
----------------
Links are not encoded only for registered users only! Plese login or register!



Fun Size (2012) MULTi.1080p.BluRay.x264.DTS.AC3-LLO / Lektor PL

Fun Size (2012) MULTi.1080p.BluRay.x264.DTS.AC3-LLO / Lektor PL

Użytkownik VIP

LILILILO VIP Uploader

#1 | Dodany: 26 Luty 2013 02:39

ok
Użytkownik VIP

GHunter Użytkownik

#2 | Dodany: 26 Luty 2013 02:39

Fun Size (2012) PL.720p.BluRay.x264.AC3-BiDA / Lektor PL


Format : Matroska at 6.175 Kb/s
Length : 3,73 GB for 1h 26 min. 23s 776ms

Video #0 : AVC at 5.729 Kb/s
Aspect : 1280 x 544 (2.353) at 23.976 fps

Audio #0 : AC-3 at 448 Kb/s
Infos : 6 kanałów, 48,0 KHz
Language : pl



V: SPARKS A: DS [thx!]




1 link - ściągasz - odpalasz - nie ma pitu pitu ;)
Uwaga! Linki nie zakodowane tylko dla zarejestrowanych użytkowników!

Nie masz konta? Zarejestruj się za darmo!
----------------
Links are not encoded only for registered users only! Plese login or register!




Użytkownik VIP

limaczqUżytkownik

#3 | Dodany: 26 Luty 2013 07:49

ok
Użytkownik VIP

MotyleczekUploader

#4 | Dodany: 26 Luty 2013 10:58


Fun Size (2012) PL.PAL.DVDR


MENU : Yes/Tak/Polskie/Edytowane
SYSTEM : PAL / 16:9
VIDEO : Untouched / Nietkniete
AUDIO : Angielski DD 5.1, Polski Lektor DD 5.1
SUBS : Polskie, Inne
EXTRAS : Partial Stripped / Czesciowo Usuniete
SOURCE : DVDR9-MyAmigos (THX)


Uwaga! Linki nie zakodowane tylko dla zarejestrowanych użytkowników!

Nie masz konta? Zarejestruj się za darmo!
----------------
Links are not encoded only for registered users only! Plese login or register!
Użytkownik VIP

freefraggVIP

#5 | Dodany: 26 Luty 2013 15:07

Fun.Size.2012.PL.PAL.DVDR-DVDSEED / POLSKI LEKTOR i NAPISY PL

DANE TECHNICZNE
MENU : Yes/Tak/Polskie/Edytowane
SYSTEM : PAL / 16:9
VIDEO : Untouched / Nietkniete
AUDIO : Angielski DD 5.1, Polski Lektor DD 5.1
SUBS : Polskie, Inne
EXTRAS : Partial Stripped / Czesciowo Usuniete
SOURCE : DVDR9-MyAmigos (THX)


OPIS UPLOADU
Wielkość...........: 4260 MB
Kompresja..........: rar
Zawartość..........: pliki .vob
Dane naprawcze.....: brak
Wersja językowa....: LEKTOR PL / NAPISY PL
Hasło:.............: brak


Download:
(można pobierać zamiennie z serwerów)


Uwaga! Linki nie zakodowane tylko dla zarejestrowanych użytkowników!

Nie masz konta? Zarejestruj się za darmo!
----------------
Links are not encoded only for registered users only! Plese login or register!


BRAK HASŁA
Użytkownik VIP

valFannUżytkownik

#6 | Dodany: 27 Luty 2013 15:22

Uwaga! Linki nie zakodowane tylko dla zarejestrowanych użytkowników!

Nie masz konta? Zarejestruj się za darmo!
----------------
Links are not encoded only for registered users only! Plese login or register!
Użytkownik VIP

janek0001Użytkownik

#7 | Dodany: 28 Luty 2013 12:53

Fun.Size.2012.MULTi.1080p.BluRay.x264.DTS.AC3-LLO

Mój upload || My upload
Bez hasła || No password
5% danych naprawczych || 5% data recovery

Format : Matroska
File size : 6.82 GiB
Overall bit rate : 11.3 Mbps
Movie name : LLO

Video

Format : AVC
Format profile : High@L4.1
Duration : 1h 26mn
Bit rate : 9 354 Kbps
Width : 1 920 pixels
Height : 816 pixels
Display aspect ratio : 2.35:1
Frame rate : 23.976 fps

Audio #1

Format : AC-3
Bit rate : 448 Kbps
Channel(s) : 6 channels
Sampling rate : 48.0 KHz
Language : Polish

Audio #2

Format : DTS
Bit rate : 1 510 Kbps
Channel(s) : 6 channels
Sampling rate : 48.0 KHz
Language : English


Uwaga! Linki nie zakodowane tylko dla zarejestrowanych użytkowników!

Nie masz konta? Zarejestruj się za darmo!
----------------
Links are not encoded only for registered users only! Plese login or register!
Użytkownik VIP

astyUżytkownik

#8 | Dodany: 28 Luty 2013 14:16

Fun Size (2012) MULTi.1080p.BluRay.x264.DTS.AC3-LLO / Lektor PL

Dane Techniczne:

Format : Matroska
Format version : Version 2
File size : 6.82 GiB
Duration : 1h 26mn
Overall bit rate : 11.3 Mbps
Movie name : LLO
Encoded date : UTC 2013-02-26 00:08:28
Writing application : mkvmerge v5.8.0 ('No Sleep / Pillow') built on Sep 2 2012 15:37:04
Writing library : libebml v1.2.3 + libmatroska v1.3.0

Video
ID : 1
Format : AVC
Format/Info : Advanced Video Codec
Format profile : High@L4.1
Format settings, CABAC : Yes
Format settings, ReFrames : 5 frames
Codec ID : V_MPEG4/ISO/AVC
Duration : 1h 26mn
Bit rate : 9 354 Kbps
Width : 1 920 pixels
Height : 816 pixels
Display aspect ratio : 2.35:1
Frame rate mode : Constant
Frame rate : 23.976 fps
Color space : YUV
Chroma subsampling : 4:2:0
Bit depth : 8 bits
Scan type : Progressive
Bits/(Pixel*Frame) : 0.249
Stream size : 5.51 GiB (81%)
Writing library : x264 core 129 r2245 bc13772
Encoding settings : cabac=1 / ref=5 / deblock=1:0:0 / analyse=0x3:0x133 / me=umh / subme=7 / psy=1 / psy_rd=1.00:0.00 / mixed_ref=1 / me_range=16 / chroma_me=1 / trellis=1 / 8x8dct=1 / cqm=0 / deadzone=21,11 / fast_pskip=0 / chroma_qp_offset=-2 / threads=12 / lookahead_threads=2 / sliced_threads=0 / nr=0 / decimate=1 / interlaced=0 / bluray_compat=0 / constrained_intra=0 / bframes=3 / b_pyramid=2 / b_adapt=1 / b_bias=0 / direct=1 / weightb=1 / open_gop=0 / weightp=2 / keyint=250 / keyint_min=23 / scenecut=40 / intra_refresh=0 / rc_lookahead=40 / rc=2pass / mbtree=1 / bitrate=9354 / ratetol=1.0 / qcomp=0.60 / qpmin=0 / qpmax=69 / qpstep=4 / cplxblur=20.0 / qblur=0.5 / ip_ratio=1.40 / aq=1:1.00
Language : English
Default : Yes
Forced : No

Audio #1
ID : 2
Format : AC-3
Format/Info : Audio Coding 3
Mode extension : CM (complete main)
Format settings, Endianness : Big
Codec ID : A_AC3
Duration : 1h 26mn
Bit rate mode : Constant
Bit rate : 448 Kbps
Channel(s) : 6 channels
Channel positions : Front: L C R, Side: L R, LFE
Sampling rate : 48.0 KHz
Bit depth : 16 bits
Compression mode : Lossy
Stream size : 277 MiB (4%)
Language : Polish
Default : Yes
Forced : No

Audio #2
ID : 3
Format : DTS
Format/Info : Digital Theater Systems
Codec ID : A_DTS
Duration : 1h 26mn
Bit rate mode : Constant
Bit rate : 1 510 Kbps
Channel(s) : 6 channels
Channel positions : Front: L C R, Side: L R, LFE
Sampling rate : 48.0 KHz
Bit depth : 24 bits
Compression mode : Lossy
Stream size : 933 MiB (13%)
Language : English
Default : No
Forced : No

Chapters: YES


Download:
Uwaga! Linki nie zakodowane tylko dla zarejestrowanych użytkowników!

Nie masz konta? Zarejestruj się za darmo!
----------------
Links are not encoded only for registered users only! Plese login or register!
Użytkownik VIP

szymus188Użytkownik

#9 | Dodany: 18 Kwiecień 2013 17:30

Fun Size 2012 PL 720p BluRay AC3 x264

Dane techniczne:
Format .mkv
Wielkość 3.72Gb
Party zamienne


Turbobit.net:
http://turbobit.net/lay5jesovzvq.html
http://turbobit.net/e4m0we2uccdm.html
http://turbobit.net/8b9jwf0gg127.html
http://turbobit.net/i98dr82w3a6f.html

Egofiles.com:
http://egofiles.com/Koh6ZcFuZuisPjoY
http://egofiles.com/xxYR9o2tZAkltu0F
http://egofiles.com/prx4PszRIdKTZZyA
http://egofiles.com/MgfG0s3XDdtcrEfD

Informacje

Jeżeli chcesz skomentować artykuł musisz być zarejestrowany na stronie.