EXSite.pl - Portal ze wszystkim Mamy tutaj wszystko

NIE MASZ JESZCZE KONTA? ZAREJESTRUJ SIĘ ZA DARMO!   
Przypomnij hasło X

Company of Heroes: Oddział bohaterów / Company of Heroes (2013) PL.1080p.BluRay.X264-SLiSU / Lektor PL

Dodał: Marrakech 6 Kwiecień 2013 12:24


Company of Heroes: Oddział bohaterów / Company of Heroes (2013) PL.1080p.BluRay.X264-SLiSU


Company of Heroes: Oddział bohaterów / Company of Heroes (2013) PL.1080p.BluRay.X264-SLiSU / Lektor PL

Ameryka?scy żołnierze zagubieni głęboko za linią wroga podczas Drugiej Wojny światowej odkrywają, że wojska hitlerowskie są w trakcie projektowania i produkcji superbomby. Pomimo wszystkiego, za wszelką cenę spróbują znaleźć naukowca odpowiedzialnego za ten program, który będzie chciał zdradzić i niedopuścić do wyprodukowania bomby.

Company of Heroes: Oddział bohaterów / Company of Heroes (2013) PL.1080p.BluRay.X264-SLiSU / Lektor PL Company of Heroes: Oddział bohaterów / Company of Heroes (2013) PL.1080p.BluRay.X264-SLiSU / Lektor PL

SAMPLE
Uwaga! Linki nie zakodowane tylko dla zarejestrowanych użytkowników!

Nie masz konta? Zarejestruj się za darmo!
----------------
Links are not encoded only for registered users only! Plese login or register!




DOWNLOAD LiNKS - 1PART=900MB:
Bez hasła || 2% danych naprawczych || Można pobierać na przemian
Uwaga! Linki nie zakodowane tylko dla zarejestrowanych użytkowników!

Nie masz konta? Zarejestruj się za darmo!
----------------
Links are not encoded only for registered users only! Plese login or register!


Uwaga! Linki nie zakodowane tylko dla zarejestrowanych użytkowników!

Nie masz konta? Zarejestruj się za darmo!
----------------
Links are not encoded only for registered users only! Plese login or register!


Uwaga! Linki nie zakodowane tylko dla zarejestrowanych użytkowników!

Nie masz konta? Zarejestruj się za darmo!
----------------
Links are not encoded only for registered users only! Plese login or register!


Uwaga! Linki nie zakodowane tylko dla zarejestrowanych użytkowników!

Nie masz konta? Zarejestruj się za darmo!
----------------
Links are not encoded only for registered users only! Plese login or register!




Użytkownik VIP

MarrakechVIP

#1 | Dodany: 6 Kwiecień 2013 12:24

brawo
Użytkownik VIP

GHunter Użytkownik

#2 | Dodany: 6 Kwiecień 2013 12:25

Company of Heroes: Oddział bohaterów / Company of Heroes (2013) PL.720p.BluRay.x264.AC3-BiDA / Lektor PL





Format : Matroska at 5.096 Kb/s
Length : 3,58 GB for 1h 40 min. 28s 960ms

Video #0 : AVC at 4.713 Kb/s
Aspect : 1280 x 720 (1.778) at 23.976 fps

Audio #0 : AC-3 at 384 Kb/s
Infos : 6 kanałów, 48,0 KHz
Language : pl



V: IGUANA A: DVD9




1 link - ściągasz - odpalasz - nie ma pitu pitu ;)

Uwaga! Linki nie zakodowane tylko dla zarejestrowanych użytkowników!

Nie masz konta? Zarejestruj się za darmo!
----------------
Links are not encoded only for registered users only! Plese login or register!



Użytkownik VIP

marcel8123Użytkownik

#3 | Dodany: 6 Kwiecień 2013 14:31

można na turbobicie??
Użytkownik VIP

LILILILO VIP Uploader

#4 | Dodany: 6 Kwiecień 2013 15:57

Company of Heroes: Oddział bohaterów / Company of Heroes (2013)
MULTi.720p.BluRay.x264.DTS.AC3-LLO / Lektor i Napisy PL



Source: EbP / DVD9

Sample
Uwaga! Linki nie zakodowane tylko dla zarejestrowanych użytkowników!

Nie masz konta? Zarejestruj się za darmo!
----------------
Links are not encoded only for registered users only! Plese login or register!


Uwaga! Linki nie zakodowane tylko dla zarejestrowanych użytkowników!

Nie masz konta? Zarejestruj się za darmo!
----------------
Links are not encoded only for registered users only! Plese login or register!
Użytkownik VIP

MotyleczekUploader

#5 | Dodany: 6 Kwiecień 2013 18:49


Company of Heroes: Oddział bohaterów / Company of Heroes (2013) MULTi.PAL.DVD9-iRONCLUB | Lektor PL



Uwaga! Linki nie zakodowane tylko dla zarejestrowanych użytkowników!

Nie masz konta? Zarejestruj się za darmo!
----------------
Links are not encoded only for registered users only! Plese login or register!
Użytkownik VIP

astyUżytkownik

#6 | Dodany: 14 Kwiecień 2013 16:02

Company of Heroes: Oddział bohaterów / Company of Heroes (2013) PL.1080p.BluRay.X264-SLiSU / Lektor PL

Format : Matroska
Format version : Version 2
File size : 11.8 GiB
Duration : 1h 40mn
Overall bit rate : 16.9 Mbps
Encoded date : UTC 2013-04-06 09:42:28
Writing application : mkvmerge v5.0.1 ('Es ist Sommer') built on Oct 13 2011 06:24:21
Writing library : libebml v1.2.2 + libmatroska v1.3.0

Video
ID : 1
Format : AVC
Format/Info : Advanced Video Codec
Format profile : High@L4.1
Format settings, CABAC : Yes
Format settings, ReFrames : 4 frames
Muxing mode : Header stripping
Codec ID : V_MPEG4/ISO/AVC
Duration : 1h 40mn
Bit rate : 16.5 Mbps
Width : 1 920 pixels
Height : 1 080 pixels
Display aspect ratio : 16:9
Frame rate mode : Constant
Frame rate : 23.976 fps
Color space : YUV
Chroma subsampling : 4:2:0
Bit depth : 8 bits
Scan type : Progressive
Bits/(Pixel*Frame) : 0.332
Stream size : 11.3 GiB (96%)
Title : Company.of.Heroes.2013.1080p.BluRay.DTS.x264-HDMaNiAcS
Writing library : x264 core 129 r2245 bc13772
Encoding settings : cabac=1 / ref=4 / deblock=1:-3:-3 / analyse=0x3:0x133 / me=tesa / subme=11 / psy=1 / psy_rd=1.05:0.00 / mixed_ref=1 / me_range=24 / chroma_me=1 / trellis=2 / 8x8dct=1 / cqm=0 / deadzone=21,11 / fast_pskip=1 / chroma_qp_offset=-2 / threads=12 / lookahead_threads=2 / sliced_threads=0 / nr=0 / decimate=1 / interlaced=0 / bluray_compat=0 / constrained_intra=0 / bframes=8 / b_pyramid=2 / b_adapt=2 / b_bias=0 / direct=3 / weightb=1 / open_gop=0 / weightp=2 / keyint=240 / keyint_min=23 / scenecut=40 / intra_refresh=0 / rc=2pass / mbtree=0 / bitrate=16500 / ratetol=1.0 / qcomp=0.60 / qpmin=10 / qpmax=69 / qpstep=4 / cplxblur=20.0 / qblur=0.5 / ip_ratio=1.40 / pb_ratio=1.30 / aq=2:0.60
Language : English
Default : Yes
Forced : No

Audio
ID : 2
Format : AC-3
Format/Info : Audio Coding 3
Mode extension : CM (complete main)
Format settings, Endianness : Big
Muxing mode : Header stripping
Codec ID : A_AC3
Duration : 1h 40mn
Bit rate mode : Constant
Bit rate : 384 Kbps
Channel(s) : 6 channels
Channel positions : Front: L C R, Side: L R, LFE
Sampling rate : 48.0 KHz
Bit depth : 16 bits
Compression mode : Lossy
Stream size : 276 MiB (2%)
Language : Polish
Default : Yes
Forced : No

SOURCE: HDMaNiAcS | Ironclub [THX]

Waga: 11.8gb
Zawartość Uploadu: Plik .mkv
Wersja Językowa: PL Profesjonalny


Uwaga! Linki nie zakodowane tylko dla zarejestrowanych użytkowników!

Nie masz konta? Zarejestruj się za darmo!
----------------
Links are not encoded only for registered users only! Plese login or register!

Informacje

Jeżeli chcesz skomentować artykuł musisz być zarejestrowany na stronie.