EXSite.pl - Portal ze wszystkim Mamy tutaj wszystko

NIE MASZ JESZCZE KONTA? ZAREJESTRUJ SIĘ ZA DARMO!   
Przypomnij hasło X

Maksimum ryzyka / Maximum Risk (1996) MULTi.720p.BluRay.x264.AC3-LLO + m720p / Lektor i Napisy PL

Dodał: LILILILO 5 Maj 2013 13:31


Maksimum ryzyka / Maximum Risk (1996) MULTi.720p.BluRay.x264.AC3-LLO + m720p / Lektor i Napisy PL


Reżyseria: Ringo Lam
Scenariusz: Larry Ferguson
Premiera: 14 lutego 1997 (Polska) 13 września 1996 (świat)
Produkcja: USA
Gatunek: Akcja

Alain Moreau's (Van Damme) prowadząc śledztwo w sprawie śmierci brata bliźniaka przenosi się z południowej Francji na ulice Nowego Yorku... i w ramiona pięknej dziewczyny swojego brata (Henstridge). Na drodze do rozwiązania zagadki morderstwa staje mu rosyjska mafia oraz były agent FBI. Dodatkowym problemem jest fakt, że wszystkie ślady po bracie znikają, a osoba, która znała go najlepiej nie mówi wszystkiego ...


Source: DON / N0BODY (thx)

Sample
Uwaga! Linki nie zakodowane tylko dla zarejestrowanych użytkowników!

Nie masz konta? Zarejestruj się za darmo!
----------------
Links are not encoded only for registered users only! Plese login or register!


Maksimum ryzyka / Maximum Risk (1996) MULTi.720p.BluRay.x264.AC3-LLO + m720p / Lektor i Napisy PL Maksimum ryzyka / Maximum Risk (1996) MULTi.720p.BluRay.x264.AC3-LLO + m720p / Lektor i Napisy PL


Uwaga! Linki nie zakodowane tylko dla zarejestrowanych użytkowników!

Nie masz konta? Zarejestruj się za darmo!
----------------
Links are not encoded only for registered users only! Plese login or register!


m720p


Uwaga! Linki nie zakodowane tylko dla zarejestrowanych użytkowników!

Nie masz konta? Zarejestruj się za darmo!
----------------
Links are not encoded only for registered users only! Plese login or register!



Maksimum ryzyka / Maximum Risk (1996) MULTi.720p.BluRay.x264.AC3-LLO + m720p / Lektor i Napisy PL

Maksimum ryzyka / Maximum Risk (1996) MULTi.720p.BluRay.x264.AC3-LLO + m720p / Lektor i Napisy PL

Użytkownik VIP

LILILILO VIP Uploader

#1 | Dodany: 4 Maj 2013 20:32

ok
Użytkownik VIP

airw34Użytkownik

#2 | Dodany: 4 Maj 2013 21:06

ok
airw34
Użytkownik VIP

johnysUżytkownik

#3 | Dodany: 5 Maj 2013 13:33

Maksimum ryzyka / Maximum Risk (1996) MULTi.720p.BluRay.x264.AC3-LLO + m720p / Lektor i Napisy PL
Dane Technicze

Format version : Version 4 / Version 2
File size : 4.82 GiB
Duration : 1h 40mn
Overall bit rate : 6 861 Kbps
Movie name : LLO
Encoded date : UTC 2013-05-04 17:39:46
Writing application : mkvmerge v6.1.0 ('Old Devil') built on Mar 2 2013 14:32:37
Writing library : libebml v1.3.0 + libmatroska v1.4.0

Video
ID : 1
Format : AVC
Format/Info : Advanced Video Codec
Format profile : High@L4.1
Format settings, CABAC : Yes
Format settings, ReFrames : 12 frames
Codec ID : V_MPEG4/ISO/AVC
Duration : 1h 40mn
Bit rate : 5 583 Kbps
Width : 1 280 pixels
Height : 534 pixels
Display aspect ratio : 2.40:1
Frame rate mode : Constant
Frame rate : 23.976 fps
Color space : YUV
Chroma subsampling : 4:2:0
Bit depth : 8 bits
Scan type : Progressive
Bits/(Pixel*Frame) : 0.341
Stream size : 3.82 GiB (79%)
Writing library : x264 core 118 r2085 8a62835
Encoding settings : cabac=1 / ref=12 / deblock=1:-3:-3 / analyse=0x3:0x133 / me=umh / subme=10 / psy=1 / psy_rd=1.20:0.20 / mixed_ref=1 / me_range=32 / chroma_me=1 / trellis=2 / 8x8dct=1 / cqm=0 / deadzone=21,11 / fast_pskip=0 / chroma_qp_offset=-3 / threads=6 / sliced_threads=0 / nr=0 / decimate=1 / interlaced=0 / bluray_compat=0 / constrained_intra=0 / bframes=7 / b_pyramid=2 / b_adapt=2 / b_bias=0 / direct=1 / weightb=1 / open_gop=0 / weightp=2 / keyint=250 / keyint_min=23 / scenecut=40 / intra_refresh=0 / rc_lookahead=40 / rc=2pass / mbtree=1 / bitrate=5583 / ratetol=1.0 / qcomp=0.60 / qpmin=0 / qpmax=51 / qpstep=4 / cplxblur=20.0 / qblur=0.5 / vbv_maxrate=50000 / vbv_bufsize=50000 / nal_hrd=none / ip_ratio=1.40 / aq=1:0.80
Language : English
Default : Yes
Forced : No

Audio #1
ID : 2
Format : AC-3
Format/Info : Audio Coding 3
Mode extension : CM (complete main)
Format settings, Endianness : Big
Codec ID : A_AC3
Duration : 1h 40mn
Bit rate mode : Constant
Bit rate : 640 Kbps
Channel(s) : 6 channels
Channel positions : Front: L C R, Side: L R, LFE
Sampling rate : 48.0 KHz
Bit depth : 16 bits
Compression mode : Lossy
Stream size : 460 MiB (9%)
Language : Polish
Default : Yes
Forced : No

Audio #2
ID : 3
Format : AC-3
Format/Info : Audio Coding 3
Mode extension : CM (complete main)
Format settings, Endianness : Big
Codec ID : A_AC3
Duration : 1h 40mn
Bit rate mode : Constant
Bit rate : 640 Kbps
Channel(s) : 6 channels
Channel positions : Front: L C R, Side: L R, LFE
Sampling rate : 48.0 KHz
Bit depth : 16 bits
Compression mode : Lossy
Stream size : 460 MiB (9%)
Language : English
Default : No
Forced : No

Text #1
ID : 4
Format : UTF-8
Codec ID : S_TEXT/UTF8
Codec ID/Info : UTF-8 Plain Text
Language : Polish
Default : No
Forced : No

Text #2
ID : 5
Format : UTF-8
Codec ID : S_TEXT/UTF8
Codec ID/Info : UTF-8 Plain Text
Language : English
Default : No
Forced : No

Chapters: YES

Download
CatShare
Uwaga! Linki nie zakodowane tylko dla zarejestrowanych użytkowników!

Nie masz konta? Zarejestruj się za darmo!
----------------
Links are not encoded only for registered users only! Plese login or register!

Turbobit
Uwaga! Linki nie zakodowane tylko dla zarejestrowanych użytkowników!

Nie masz konta? Zarejestruj się za darmo!
----------------
Links are not encoded only for registered users only! Plese login or register!

EgoFiles
Uwaga! Linki nie zakodowane tylko dla zarejestrowanych użytkowników!

Nie masz konta? Zarejestruj się za darmo!
----------------
Links are not encoded only for registered users only! Plese login or register!

love
Przepraszam i dzi?kuj? ;)

Informacje

Jeżeli chcesz skomentować artykuł musisz być zarejestrowany na stronie.