EXSite.pl - Portal ze wszystkim Mamy tutaj wszystko

NIE MASZ JESZCZE KONTA? ZAREJESTRUJ SIĘ ZA DARMO!   
Przypomnij hasło X

Armia ciemności / Army of Darkness (1992) DC.PL.720p.BluRay.X264.AC3-LLO + m720p / Lektor PL

Dodał: LILILILO 30 Maj 2013 14:25


Armia ciemności / Army of Darkness (1992) DC.PL.720p.BluRay.X264.AC3-LLO + m720p / Lektor PL


gatunek: Horror, Komedia
produkcja: USA
premiera: 9 października 1992 (świat)
reżyseria: Sam Raimi
scenariusz: Sam Raimi, Ivan Raimi

Ash, który został wciągnięty przez wir czasowy, zostaje przeniesiony do średniowiecznej Anglii. Aby powrócić do współczesności musi odnaleźć Necronomicon i wypowiedzieć zaklęcie. Jednak w czasie poszukiwa? Ash budzi niechcący do życia armię ciemności, której będzie musiał stawić czoło ...


Source: AMiABLE / DVDRip-NN

Sample
Uwaga! Linki nie zakodowane tylko dla zarejestrowanych użytkowników!

Nie masz konta? Zarejestruj się za darmo!
----------------
Links are not encoded only for registered users only! Plese login or register!


Armia ciemności / Army of Darkness (1992) DC.PL.720p.BluRay.X264.AC3-LLO + m720p / Lektor PL Armia ciemności / Army of Darkness (1992) DC.PL.720p.BluRay.X264.AC3-LLO + m720p / Lektor PL Armia ciemności / Army of Darkness (1992) DC.PL.720p.BluRay.X264.AC3-LLO + m720p / Lektor PL Armia ciemności / Army of Darkness (1992) DC.PL.720p.BluRay.X264.AC3-LLO + m720p / Lektor PL


Uwaga! Linki nie zakodowane tylko dla zarejestrowanych użytkowników!

Nie masz konta? Zarejestruj się za darmo!
----------------
Links are not encoded only for registered users only! Plese login or register!


m720p



Uwaga! Linki nie zakodowane tylko dla zarejestrowanych użytkowników!

Nie masz konta? Zarejestruj się za darmo!
----------------
Links are not encoded only for registered users only! Plese login or register!



Armia ciemności / Army of Darkness (1992) DC.PL.720p.BluRay.X264.AC3-LLO + m720p / Lektor PL

Armia ciemności / Army of Darkness (1992) DC.PL.720p.BluRay.X264.AC3-LLO + m720p / Lektor PL

Użytkownik VIP

LILILILO VIP Uploader

#1 | Dodany: 29 Maj 2013 02:00

ok
Użytkownik VIP

qlimax1414Użytkownik

#2 | Dodany: 29 Maj 2013 10:36

da rqade m hd bardzo prosze
Użytkownik VIP

arek111Użytkownik

#3 | Dodany: 29 Maj 2013 10:44

fajna wstawka film kultowy dla pokolenia 30 parolatków jednak prosił bym o full HD 1920x1080p o rozmiarze tak na dvd9
Użytkownik VIP

kpt.bombaUżytkownik

#4 | Dodany: 29 Maj 2013 11:10

Klasyk
Użytkownik VIP

diabelek2222Użytkownik

#5 | Dodany: 29 Maj 2013 17:13

Konkret za Ul.to thx
Użytkownik VIP

cwa_ny94Użytkownik

#6 | Dodany: 30 Maj 2013 15:23

Armia ciemności / Army of Darkness (1992) DC.PL.720p.BluRay.X264.AC3-LLO + m720p / Lektor PL

Dane Techniczne:
Format : Matroska
Format version : Version 4 / Version 2
File size : 4.70 GiB
Duration : 1h 36mn
Overall bit rate : 6 988 Kbps


Download:
http://catshare.net/xXah2ZjeJe5J9C7h
http://catshare.net/mF5C2R61cHmWLOqx
http://catshare.net/JRWGYwTm1drTlA36
http://catshare.net/Yp441ZpeTfiSTyeL
http://catshare.net/HW8A5bnLMNeoJyZ6

!!Nowe Linki!!
Użytkownik VIP

adrunrlUżytkownik

#7 | Dodany: 31 Maj 2013 13:46

Armia ciemności / Army of Darkness (1992) BRRip.XviD.adrunrl.Lektor PL

Sample:

http://turbobit.net/zf17z3yy601w.html


Dane techniczne:

Format : AVI
Format/Info : Audio Video Interleave
Format profile : OpenDML
File size : 1.36 GiB
Duration : 1h 36mn
Overall bit rate : 2 017 Kbps
Movie name : LLO
Writing application : Lavf51.12.1

Video
ID : 0
Format : xvid
Codec ID : xvid
Duration : 1h 36mn
Bit rate : 1 842 Kbps
Width : 640 pixels
Height : 360 pixels
Display aspect ratio : 16:9
Frame rate : 23.976 fps
Bits/(Pixel*Frame) : 0.334
Stream size : 1.24 GiB (91%)

Audio
ID : 1
Format : MPEG Audio
Format version : Version 1
Format profile : Layer 3
Mode : Joint stereo
Mode extension : MS Stereo
Codec ID : 55
Codec ID/Hint : MP3
Duration : 1h 36mn
Bit rate mode : Constant
Bit rate : 160 Kbps
Channel(s) : 2 channels
Sampling rate : 44.1 KHz
Compression mode : Lossy
Stream size : 111 MiB (8%)
Alignment : Aligned on interleaves
Interleave, duration : 26 ms (0.63 video frame)
Writing library : LAME3.97


Download:

http://turbobit.net/413kg4v11ect.html

Informacje

Jeżeli chcesz skomentować artykuł musisz być zarejestrowany na stronie.