EXSite.pl - Portal ze wszystkim Mamy tutaj wszystko

NIE MASZ JESZCZE KONTA? ZAREJESTRUJ SIĘ ZA DARMO!   
Przypomnij hasło X

Killer Mountain (2011) R5-PRESTiGE

Dodał: ampatinis 7 Listopad 2011 14:37


Killer Mountain (2011) R5-PRESTiGE

Killer Mountain (2011) R5-PRESTiGE

Killer Mountain (2011) R5-PRESTiGE
Produkcja: USA
Gatunek: Thriller, Sci-Fi
Czas trwania: 85 min.
Premiera: 27.08.2011 - świat
Reżyseria: Sheldon Wilson
Scenariusz: Peter Sullivan, Sheldon Wilson
Aktorzy: Aaron Douglas, Paul Campbell, Curtis Caravaggio, Torrance Coombs

OPIS: Grupa naukowców prowadzi badania na górze Nanga Parbat, jednak pewnego dnia kontakt z nimi urywa się. Na pomoc rusza ekipa ratunkowa, która odkrywa, że naukowcy poszukiwali w Himalajach starożytnego smoka

Video:

ID : 0
Format : MPEG-4 Visual
Format profile : Advanced Simple@L5
Format settings, BVOP : 2
Format settings, QPel : No
Format settings, GMC : No warppoints
Format settings, Matrix : Default (H.263)
Muxing mode : Packed bitstream
Codec ID : XVID
Codec ID/Hint : XviD
Duration : 1h 24mn
Bit rate : 1 019 Kbps
Width : 720 pixels
Height : 400 pixels
Display aspect ratio : 16:9
Frame rate : 25.000 fps
Color space : YUV
Chroma subsampling : 4:2:0
Bit depth : 8 bits
Scan type : Progressive
Compression mode : Lossy
Bits/(Pixel*Frame) : 0.142
Stream size : 617 MiB (88%)
Writing library : XviD 63

Audio:

ID : 1
Format : MPEG Audio
Format version : Version 1
Format profile : Layer 3
Mode : Joint stereo
Mode extension : MS Stereo
Codec ID : 55
Codec ID/Hint : MP3
Duration : 1h 24mn
Bit rate mode : Constant
Bit rate : 128 Kbps
Channel(s) : 2 channels
Sampling rate : 44.1 KHz
Compression mode : Lossy
Delay relative to video : 26ms
Stream size : 77.6 MiB (11%)
Alignment : Split accross interleaves
Interleave, duration : 40 ms (1.00 video frame)
Interleave, preload duration : 500 ms


Killer Mountain (2011) R5-PRESTiGE
Killer Mountain (2011) R5-PRESTiGE Killer Mountain (2011) R5-PRESTiGE

Killer Mountain (2011) R5-PRESTiGE
Uwaga! Linki nie zakodowane tylko dla zarejestrowanych użytkowników!

Nie masz konta? Zarejestruj się za darmo!
----------------
Links are not encoded only for registered users only! Plese login or register!



Informacje

Jeżeli chcesz skomentować artykuł musisz być zarejestrowany na stronie.