EXSite.pl - Portal ze wszystkim Mamy tutaj wszystko

NIE MASZ JESZCZE KONTA? ZAREJESTRUJ SIĘ ZA DARMO!   
Przypomnij hasło X

Elevator (2011) R5.DVDRIP.x264.AC3-HOPE

Dodał: dixiluk 2 Marzec 2012 11:46


Elevator (2011) R5.DVDRIP.x264.AC3-HOPE

Elevator (2011) R5.DVDRIP.x264.AC3-HOPE


..:: OPIS/INFO ::..

Czas trwania: 1 godz. 24 min
Gatunek: Thriller
Rezyser: Stig Svendsen
Scenariusz: Marc RosenbergRacism collides with corporate greed when nine strangers are trapped in a Wall Street elevator, and one of them has a bomb. They will do anything to survive.


..:: DANE TECHNICZNE ::..

Nazwa Release:Elevator (2011) R5.DVDRIP.x264.AC3-HOPE
Waga:1.01 GB
Archiwum:RAR
Dane naprawcze:1%



Information:
Format : Matroska
Format version : Version 2
File size : 1 022 MiB
Duration : 1h 20mn
Overall bit rate : 1 771 Kbps
Encoded date : UTC 2012-03-02 00:28:28
Writing application : mkvmerge v5.3.0 ('I could have danced') built on Feb 9 2012 10:38:07
Writing library : libebml v1.2.3 + libmatroska v1.3.0

Video
ID : 1
Format : AVC
Format/Info : Advanced Video Codec
Format profile : High@L5.1
Format settings, CABAC : Yes
Format settings, ReFrames : 6 frames
Codec ID : V_MPEG4/ISO/AVC
Duration : 1h 20mn
Bit rate : 1 386 Kbps
Width : 720 pixels
Height : 304 pixels
Display aspect ratio : 2.35:1
Frame rate : 25.000 fps
Color space : YUV
Chroma subsampling : 4:2:0
Bit depth : 8 bits
Scan type : Progressive
Bits/(Pixel*Frame) : 0.253
Stream size : 780 MiB (76%)
Writing library : x264 core 120 r2164 da19765

Audio
ID : 2
Format : AC-3
Format/Info : Audio Coding 3
Mode extension : CM (complete main)
Codec ID : A_AC3
Duration : 1h 20mn
Bit rate mode : Constant
Bit rate : 384 Kbps
Channel(s) : 6 channels
Channel positions : Front: L C R, Side: L R, LFE
Sampling rate : 48.0 KHz
Bit depth : 16 bits
Compression mode : Lossy
Delay relative to video : 6ms
Stream size : 222 MiB (22%)


..:: SCREENY ::..




..:: DOWNLOAD ::..

..:: 2 SERWERY. MOŻNA POBIERAĆ NA PRZEMIAN | 400 MB PARTS ::..

..:: HELLSHARE ::..

Uwaga! Linki nie zakodowane tylko dla zarejestrowanych użytkowników!

Nie masz konta? Zarejestruj się za darmo!
----------------
Links are not encoded only for registered users only! Plese login or register!

..:: TURBOBIT ::..

Uwaga! Linki nie zakodowane tylko dla zarejestrowanych użytkowników!

Nie masz konta? Zarejestruj się za darmo!
----------------
Links are not encoded only for registered users only! Plese login or register!

..:: BIG LINK::..

Uwaga! Linki nie zakodowane tylko dla zarejestrowanych użytkowników!

Nie masz konta? Zarejestruj się za darmo!
----------------
Links are not encoded only for registered users only! Plese login or register!

Mój upload | My Upload
Bez hasła | No password

Informacje

Jeżeli chcesz skomentować artykuł musisz być zarejestrowany na stronie.