EXSite.pl - Portal ze wszystkim Mamy tutaj wszystko

NIE MASZ JESZCZE KONTA? ZAREJESTRUJ SIĘ ZA DARMO!   
Przypomnij hasło X

Intruders (2011) DVDSCR.x264.AC3-BBnRG

Dodał: YOMATA 25 Marzec 2012 22:15


Intruders (2011) DVDSCR.x264.AC3-BBnRG

Intruders (2011) DVDSCR.x264.AC3-BBnRG

Intruders (2011) DVDSCR.x264.AC3-BBnRG
czas trwania: 1 godz. 40 min.
gatunek: Dramat, Horror
premiera: 12 września 2011 (świat) (więcej...)
produkcja: Hiszpania, USA, Wielka Brytania
reżyseria: Juan Carlos Fresnadillo
scenariusz: Jaime Marqu?s , Nicolas Casariego

Juan ma 7 lat i nieograniczoną wyobraźnię. W swoim pokoju, w spokojnej dzielnicy Madrytu, cierpi z powodu ataków intruza bez twarzy, który pojawia się w jego koszmarach. Jego matka, Luisa stara się mu pomóc. Mia, dorastająca 12-letnia mieszkanka Londynu, czyta swoim koleżankom z klasy tajemniczą historię o Carahueca, potworze z dziecięcych koszmarów. Tego samego dnia, John Farrow, jej ojciec, ulega wypadkowi w pracy. Życie dwóch rodzin oddzielonych tysiącami kilometrów, wywraca się do góry nogami: intruzi są już w ich domach i nie odejdą, póki nie dostaną tego, czego chcą.



Dane Techniczne:

Intruders (2011) DVDSCR.x264.AC3-BBnRG
Intruders (2011) DVDSCR.x264.AC3-BBnRG Intruders (2011) DVDSCR.x264.AC3-BBnRG Intruders (2011) DVDSCR.x264.AC3-BBnRG

Intruders (2011) DVDSCR.x264.AC3-BBnRG
Uwaga! Linki nie zakodowane tylko dla zarejestrowanych użytkowników!

Nie masz konta? Zarejestruj się za darmo!
----------------
Links are not encoded only for registered users only! Plese login or register!



Użytkownik VIP

sieciowyUżytkownik

#1 | Dodany: 25 Marzec 2012 22:26

Intruders (2011) DVDSCR.x264.AC3-BBnRG

Format : Matroska
Format version : Version 2
File size : 525 MiB
Duration : 1h 41mn
Overall bit rate : 726 Kbps

Video
ID : 1
Format : AVC
Format/Info : Advanced Video Codec
Format profile : High@L3.0
Format settings, CABAC : Yes
Format settings, ReFrames : 4 frames
Codec ID : V_MPEG4/ISO/AVC
Duration : 1h 41mn
Bit rate : 593 Kbps
Width : 640 pixels
Height : 258 pixels
Display aspect ratio : 2.481
Frame rate mode : Variable
Frame rate : 29.970 fps
Color space : YUV
Chroma subsampling : 4:2:0
Bit depth : 8 bits
Scan type : Progressive
Bits/(Pixel*Frame) : 0.120
Stream size : 422 MiB (80%)
Writing library : x264 core 112

Audio
ID : 2
Format : AC-3
Format/Info : Audio Coding 3
Mode extension : CM (complete main)
Codec ID : A_AC3
Duration : 1h 41mn
Bit rate mode : Constant
Bit rate : 128 Kbps
Channel(s) : 2 channels
Channel positions : Front: L R
Sampling rate : 44.1 KHz
Bit depth : 16 bits
Compression mode : Lossy
Stream size : 92.6 MiB (18%)


http://turbobit.net/0e3u1absp7h4/Intru (2011) DVDSCR x264 AC3-BBnRG.mkv.html

Użytkownik VIP

grad3dUżytkownik

#2 | Dodany: 5 Maj 2012 23:29

Intruders (2011) PLSUBBED.DVDRip.XviD-BiDA / Napisy PL


.::DANE TECHNICZNE::.


Format : AVI at 1.025 Kb/s
Length : 703 MB for 1h 35 min. 53s 40ms

Video #0 : MPEG-4 Visual at 887 Kb/s
Aspect : 640 x 272 (2.353) at 25.000 fps

Audio #0 : MPEG Audio at 128 Kb/s
Infos : 2 kanały, 48,0 KHz


.::DOWNLOAD 501MB PART'S!::.


Uwaga! Linki nie zakodowane tylko dla zarejestrowanych użytkowników!

Nie masz konta? Zarejestruj się za darmo!
----------------
Links are not encoded only for registered users only! Plese login or register!


.::1 LINK - SCIĄGASZ I OGLĄDZASZ::.


Uwaga! Linki nie zakodowane tylko dla zarejestrowanych użytkowników!

Nie masz konta? Zarejestruj się za darmo!
----------------
Links are not encoded only for registered users only! Plese login or register!

Informacje

Jeżeli chcesz skomentować artykuł musisz być zarejestrowany na stronie.