EXSite.pl - Portal ze wszystkim Mamy tutaj wszystko

NIE MASZ JESZCZE KONTA? ZAREJESTRUJ SIĘ ZA DARMO!   
Przypomnij hasło X

Bloodwork (2011) VODRip.XviD.AC3-TODE

Dodał: szajtek 6 Kwiecień 2012 19:23


Bloodwork (2011) VODRip.XviD.AC3-TODE


Dwójka najlepszych przyjaciół postanawia skorzystać z kuszącej oferty prywatnej firmy farmaceutycznej - za pokaźną sumę zgadzają się wziąć udział w dwutygodniowym testem. W miarę jego trwania okazuje się, że testowany lek ma przerażające skutki uboczne...

Format                                   : AVI
Format/Info                              : Audio Video Interleave
File size                                : 787 MiB
Duration                                 : 1h 39mn
Overall bit rate                         : 1 107 Kbps

Video
ID                                       : 0
Format                                   : MPEG-4 Visual
Format profile                           : Advanced Simple@L5
Format settings, BVOP                    : 2
Format settings, QPel                    : No
Format settings, GMC                     : No warppoints
Format settings, Matrix                  : Default (H.263)
Muxing mode                              : Packed bitstream
Codec ID                                 : XVID
Codec ID/Hint                            : XviD
Duration                                 : 1h 39mn
Bit rate                                 : 839 Kbps
Width                                    : 608 pixels
Height                                   : 304 pixels
Display aspect ratio                     : 2.000
Frame rate                               : 29.970 fps
Color space                              : YUV
Chroma subsampling                       : 4:2:0
Bit depth                                : 8 bits
Scan type                                : Progressive
Compression mode                         : Lossy
Bits/(Pixel*Frame)                       : 0.151
Stream size                              : 596 MiB (76%)
Writing library                          : XviD 62

Audio
ID                                       : 1
Format                                   : AC-3
Format/Info                              : Audio Coding 3
Mode extension                           : CM (complete main)
Codec ID                                 : 2000
Duration                                 : 1h 39mn
Bit rate mode                            : Constant
Bit rate                                 : 256 Kbps
Channel(s)                               : 2 channels
Channel positions                        : Front: L R
Sampling rate                            : 48.0 KHz
Bit depth                                : 16 bits
Compression mode                         : Lossy
Stream size                              : 182 MiB (23%)
Alignment                                : Split accross interleaves
Interleave, duration                     : 33 ms (1.00 video frame)
Interleave, preload duration             : 500 ms


Uwaga! Linki nie zakodowane tylko dla zarejestrowanych użytkowników!

Nie masz konta? Zarejestruj się za darmo!
----------------
Links are not encoded only for registered users only! Plese login or register!


OR // LINKS ARE INTERCHANGEABLE

Uwaga! Linki nie zakodowane tylko dla zarejestrowanych użytkowników!

Nie masz konta? Zarejestruj się za darmo!
----------------
Links are not encoded only for registered users only! Plese login or register!

Użytkownik VIP

bielaw1111Użytkownik

#1 | Dodany: 6 Kwiecień 2012 23:14

a napisy?

Informacje

Jeżeli chcesz skomentować artykuł musisz być zarejestrowany na stronie.