EXSite.pl - Portal ze wszystkim Mamy tutaj wszystko

NIE MASZ JESZCZE KONTA? ZAREJESTRUJ SIĘ ZA DARMO!   
Przypomnij hasło X

Zaginiona / Gone (2012) RC.720P.BRRIP.READNFO.x264-HOPE

Dodał: ampatinis 6 Kwiecień 2012 19:56


Zaginiona / Gone (2012) RC.720P.BRRIP.READNFO.x264-HOPE

Zaginiona / Gone (2012) RC.720P.BRRIP.READNFO.x264-HOPE

Zaginiona / Gone (2012) RC.720P.BRRIP.READNFO.x264-HOPE
czas trwania: 1 godz. 34 min.
gatunek: Dramat, Thriller
premiera: 30 marca 2012 (Polska) 24 lutego 2012 (świat)
produkcja: USA
reżyseria: Heitor Dhalia
scenariusz: Allison Burnett

Pierwszy hollywoodzki thriller złotego dziecka brazylijskiej kinematografii Heitora Dhalii z jedną z najpopularniejszych młodych aktorek świata – Amandą Seyfried ("Mamma Mia", "Wyścig z czasem").

Information:
Format : Matroska
Format version : Version 2
File size : 1.75 GiB
Duration : 1h 34mn
Overall bit rate : 2 641 Kbps
Encoded date : UTC 2012-04-06 12:04:40
Writing application : mkvmerge v5.4.0 ('Piper') built on Mar 10 2012 13:34:39
Writing library : libebml v1.2.3 + libmatroska v1.3.0

Video
ID : 1
Format : AVC
Format/Info : Advanced Video Codec
Format profile : High@L4.2
Format settings, CABAC : Yes
Format settings, ReFrames : 4 frames
Codec ID : V_MPEG4/ISO/AVC
Duration : 1h 34mn
Bit rate : 2 512 Kbps
Width : 1 280 pixels
Height : 536 pixels
Display aspect ratio : 2.40:1
Frame rate : 24.000 fps
Color space : YUV
Chroma subsampling : 4:2:0
Bit depth : 8 bits
Scan type : Progressive
Bits/(Pixel*Frame) : 0.153
Stream size : 1.63 GiB (93%)
Writing library : x264 core 122 r2184 5c85e0a

Audio
ID : 2
Format : MPEG Audio
Format version : Version 1
Format profile : Layer 3
Mode : Joint stereo
Codec ID : A_MPEG/L3
Codec ID/Hint : MP3
Duration : 1h 34mn
Bit rate mode : Constant
Bit rate : 128 Kbps
Channel(s) : 2 channels
Sampling rate : 44.1 KHz
Compression mode : Lossy
Stream size : 86.7 MiB (5%)


Zaginiona / Gone (2012) RC.720P.BRRIP.READNFO.x264-HOPE

Zaginiona / Gone (2012) RC.720P.BRRIP.READNFO.x264-HOPE Zaginiona / Gone (2012) RC.720P.BRRIP.READNFO.x264-HOPE

Zaginiona / Gone (2012) RC.720P.BRRIP.READNFO.x264-HOPE
Uwaga! Linki nie zakodowane tylko dla zarejestrowanych użytkowników!

Nie masz konta? Zarejestruj się za darmo!
----------------
Links are not encoded only for registered users only! Plese login or register!



Użytkownik VIP

dexior1978Użytkownik

#1 | Dodany: 7 Kwiecień 2012 10:13

Można reup bo 4 link padł

Informacje

Jeżeli chcesz skomentować artykuł musisz być zarejestrowany na stronie.