EXSite.pl - Portal ze wszystkim Mamy tutaj wszystko

NIE MASZ JESZCZE KONTA? ZAREJESTRUJ SIĘ ZA DARMO!   
Przypomnij hasło X

Bad ASS (2012) VODRiP.AC3-2 0 XviD-ADTRG +x264

Dodał: maaaniek2 17 Kwiecień 2012 13:28


Bad ASS (2012) VODRiP.AC3-2 0 XviD-ADTRG
[1,39GB]

Bad ASS (2012) VODRiP.AC3-2 0 XviD-ADTRG +x264

O FILMIE:

czas trwania: 1 godz. 30 min.
gatunek: Akcja
produkcja: USA
reżyseria: Craig Moss
scenariusz: Craig Moss, Elliot Tishman

Bohater wojny w Wietnamie Frank Vega wraca do rodzinnego domu, ale lokalna społeczność go odtrąca. 40 lat później w autobusie Frank staje w obronie starszego człowieka i staje się miejscowym bohaterem. Los jednak odwraca się od niego kiedy ginie jego najlepszy przyjaciel, a policja nie ma zamiaru wyjaśnić tej sprawy.


DANE TECHNICZNE:




Archiwum RAR testowane przed uploadem

w partach po ~ 400MB

Jak szybko i łatwo pobrać?

Włączamy ściąganie jednego partu z Hellshare, następnie czyścimy wszystkie ciasteczka i włączamy kolejny part do ściągania!

W ten sposób pobieramy wszystkie party na raz!



DOWNLOAD:
Bad ASS (2012) VODRiP.AC3-2 0 XviD-ADTRG +x264
Uwaga! Linki nie zakodowane tylko dla zarejestrowanych użytkowników!

Nie masz konta? Zarejestruj się za darmo!
----------------
Links are not encoded only for registered users only! Plese login or register!


lub w jednym linku bez wypakowywania:

Uwaga! Linki nie zakodowane tylko dla zarejestrowanych użytkowników!

Nie masz konta? Zarejestruj się za darmo!
----------------
Links are not encoded only for registered users only! Plese login or register!


....dodano:

x264

[587mb]

DANE TECHNICZNE:



DOWNLOAD:

Uwaga! Linki nie zakodowane tylko dla zarejestrowanych użytkowników!

Nie masz konta? Zarejestruj się za darmo!
----------------
Links are not encoded only for registered users only! Plese login or register!


Jak ominąć ograniczenia na Hellshare?

METODA I: by pobierać kilka plików jednocześnie wystarczy zainstalować kilka przegladarek:
Firefox, IE, Opera, inne do wyboru. Odpalamy je i na kazdej z nich pobieramy jeden plik.

METODA II: odpalamy jedną przegladarkę, po rozpoczeciu pobierania pierwszego pliku czyścimy
w niej ciasteczka/cookie i juz mozemy pobrac kolejny plik.

>>>Mieszkasz poza krajem? Nie możesz pobierać z Hellshare? Kliknij tu! <<<


Martwe linki? Potrzebny reupload? Nie pisz o tym w komentarzach pod newsem tylko poinformuj mnie na PW!


Zobacz koniecznie moje newsy z filmami na EXSite.pl

Użytkownik VIP

maaaniek2VIP

#1 | Dodany: 14 Kwiecień 2012 10:19

Zapraszam winked
Użytkownik VIP

ghwaySuper Uploader

#2 | Dodany: 14 Kwiecień 2012 10:19

Bad Ass (2012) VODRiP.AC3-2.0.XviD-SiC

Dane techniczne:
Release Name: Bad.Ass.2012.VODRiP.AC3-2.0.XviD-SiC
Release Date: 13-04-2012
Source: VODRiP
Size: 1.33 GB
Video: 720?400, 1 854 Kbps, 23.976 fps
Audio: English, AC3, 256 Kbps


Download - 400 MB Parts:

Hellshare
Uwaga! Linki nie zakodowane tylko dla zarejestrowanych użytkowników!

Nie masz konta? Zarejestruj się za darmo!
----------------
Links are not encoded only for registered users only! Plese login or register!


Rapidgator
Uwaga! Linki nie zakodowane tylko dla zarejestrowanych użytkowników!

Nie masz konta? Zarejestruj się za darmo!
----------------
Links are not encoded only for registered users only! Plese login or register!



Download - 1 link:

Hellshare
Uwaga! Linki nie zakodowane tylko dla zarejestrowanych użytkowników!

Nie masz konta? Zarejestruj się za darmo!
----------------
Links are not encoded only for registered users only! Plese login or register!


Rapidgator
Uwaga! Linki nie zakodowane tylko dla zarejestrowanych użytkowników!

Nie masz konta? Zarejestruj się za darmo!
----------------
Links are not encoded only for registered users only! Plese login or register!
Użytkownik VIP

bogdan53Użytkownik

#3 | Dodany: 21 Kwiecień 2012 23:59

Bad Ass (2012) RMVB-B53

  Format : RealMedia
      File size : 295 MiB
      Duration : 1h 30mn
      Overall bit rate : 444 Kbps
   Video #1
      ID : 1
      Format : RealVideo 4
      Codec ID : RV40
      Codec ID/Info : Based on AVC (H.264), Real Player 9
      Duration : 1h 30mn
      Bit rate : 380 Kbps
      Width : 720 pixels
      Height : 400 pixels
      Display aspect ratio : 16:9
      Frame rate : 23.000 fps
      Resolution : 12 bits
      Bits/(Pixel*Frame) : 0.057
      Stream size : 245 MiB (83%)
   Audio #0
      ID : 0
      Format : Cooker
      Codec ID : cook
      Codec ID/Info : Based on G.722.1, Real Player 6
      Duration : 1h 30mn
      Bit rate : 64.1 Kbps
      Channel(s) : 2 channels
      Sampling rate : 44.1 KHz
      Resolution : 16 bits
      Stream size : 41.3 MiB (14%)


http://download.hellshare.cz/bad-ass-2012-vodrip-ac3-2-0-xvid-b53-rmvb/6831406/
Homo homini lupus est.

Informacje

Jeżeli chcesz skomentować artykuł musisz być zarejestrowany na stronie.