EXSite.pl - Portal ze wszystkim Mamy tutaj wszystko

NIE MASZ JESZCZE KONTA? ZAREJESTRUJ SIĘ ZA DARMO!   
Przypomnij hasło X

Protektor / Safe (2012) R5.DVDRip.x264.AC3-TODE

Dodał: GHunter 26 Maj 2012 12:09


Protektor / Safe (2012) R5.DVDRip.x264.AC3-TODE

Protektor / Safe (2012) R5.DVDRip.x264.AC3-TODE

Protektor / Safe (2012) R5.DVDRip.x264.AC3-TODE
czas trwania: 1 godz. 34 min.
gatunek: Kryminał, Akcja
premiera: 1 marca 2012 (świat)
produkcja: USA
reżyseria: Boaz Yakin
scenariusz: Boaz Yakin

Gdy podrzędny zawodnik - Luke Wright (Jason Statham), partaczy jedną z ustawionych walk, rosyjska mafia robi z niego przykład dla innych - zabijając mu całą rodzinę, a jego samego skazuje na banicję. Wędrując po slumsach Nowego Jorku, Luke nawiedzany jest poczuciem winy i dręczony świadomością, że każdy kto się do niego zbliży - zostanie zamordowany. Wszystko się jednak zmienia kiedy na jego drodze staje 12-letnia dziewczynka Mei (Catherine Chan), ścigana przez tych samych gangsterów, którzy zmienili jego życie w koszmar. Angażując się w sprawę, Luke odkrywa, że Mei ma nie tylko niezwykłe zdolności matematyczne, ale jest także w posiadaniu kodu, bezcennego dla Triady, Rosjan i skorumpowanych funkcjonariuszy. Chroniąc życie niewinnej dziewczyny, rozpoczyna śmiertelną wojnę. I póki jest w grze, nie spocznie nim nie dopadnie winnych...



Format : AVI
Format/Info : Audio Video Interleave
File size : 706 MiB
Duration : 1h 30mn
Overall bit rate : 1 092 Kbps
Writing application : Lavf54.3.100

Video
ID : 0
Format : AVC
Format/Info : Advanced Video Codec
Format profile : Main@L4.1
Format settings, CABAC : Yes
Format settings, ReFrames : 2 frames
Codec ID : H264
Duration : 1h 30mn
Bit rate : 950 Kbps
Width : 640 pixels
Height : 272 pixels
Display aspect ratio : 2.35:1
Frame rate mode : Variable
Frame rate : 25.000 fps
Color space : YUV
Chroma subsampling : 4:2:0
Bit depth : 8 bits
Scan type : Progressive
Bits/(Pixel*Frame) : 0.218
Stream size : 616 MiB (87%)
Writing library : x264 core 122 r2184
Encoding settings : cabac=1 / ref=1 / deblock=1:0:0 / analyse=0x1:0x131 / me=hex / subme=5 / psy=1 / psy_rd=1.00:0.00 / mixed_ref=0 / me_range=16 / chroma_me=1 / trellis=0 / 8x8dct=0 / cqm=0 / deadzone=21,11 / fast_pskip=1 / chroma_qp_offset=0 / threads=3 / sliced_threads=0 / nr=0 / decimate=1 / interlaced=0 / bluray_compat=0 / constrained_intra=0 / bframes=3 / b_pyramid=0 / b_adapt=1 / b_bias=0 / direct=3 / weightb=1 / open_gop=0 / weightp=2 / keyint=250 / keyint_min=25 / scenecut=40 / intra_refresh=0 / rc_lookahead=40 / rc=abr / mbtree=1 / bitrate=950 / ratetol=1.0 / qcomp=0.60 / qpmin=10 / qpmax=51 / qpstep=4 / vbv_maxrate=24000 / vbv_bufsize=24000 / nal_hrd=none / ip_ratio=1.40 / aq=1:1.00

Audio
ID : 1
Format : AC-3
Format/Info : Audio Coding 3
Mode extension : CM (complete main)
Format settings, Endianness : Big
Codec ID : 2000
Duration : 1h 30mn
Bit rate mode : Constant
Bit rate : 128 Kbps
Channel(s) : 2 channels
Channel positions : Front: L R
Sampling rate : 48.0 KHz
Bit depth : 16 bits
Compression mode : Lossy
Stream size : 82.7 MiB (12%)
Alignment : Aligned on interleaves
Interleave, duration : 32 ms (0.80 video frame)
Title : English - YanKeeS



Protektor / Safe (2012) R5.DVDRip.x264.AC3-TODE
Uwaga! Linki nie zakodowane tylko dla zarejestrowanych użytkowników!

Nie masz konta? Zarejestruj się za darmo!
----------------
Links are not encoded only for registered users only! Plese login or register!



Użytkownik VIP

amh91VIP

#1 | Dodany: 26 Maj 2012 12:12

;pp
.

Audycje - DJ HIT - 18.05.2012 - Hot Hits

Gorąco Polecam ! - Zippyshare.com


.
Użytkownik VIP

neo 25Użytkownik

#2 | Dodany: 27 Maj 2012 08:12



Dane Techniczne:

Format : AVI at 1 089 Kbps
Length : 704 MiB for 1h 30mn 22s 720ms

Video #0 : MPEG-4 Visual at 951 Kbps
Aspect : 720 x 304 (2.368) at 25.000 fps

Audio #0 : MPEG Audio at 128 Kbps
Infos : 2 channels, 48.0 KHz


Download:

Hellshare.com
Uwaga! Linki nie zakodowane tylko dla zarejestrowanych użytkowników!

Nie masz konta? Zarejestruj się za darmo!
----------------
Links are not encoded only for registered users only! Plese login or register!


Lub / Or

HellUpload.com
Uwaga! Linki nie zakodowane tylko dla zarejestrowanych użytkowników!

Nie masz konta? Zarejestruj się za darmo!
----------------
Links are not encoded only for registered users only! Plese login or register!


Tylko 1 Link!

Hellshare.com
Uwaga! Linki nie zakodowane tylko dla zarejestrowanych użytkowników!

Nie masz konta? Zarejestruj się za darmo!
----------------
Links are not encoded only for registered users only! Plese login or register!

Użytkownik VIP

asior01Super Uploader

#3 | Dodany: 27 Maj 2012 18:52

Safe (2012) R5.LiNE.XviD-YanKeeS


Release Name: Safe.2012.R5.LiNE.XviD-YanKeeS
Size: 700 MiB
Video: XviD | 720?304 | 946 Kbps
Audio: English | MP3 | 128kbps
Runtime: 1h 30mn


avi lub rar bez hasła linki naprzemienne

POBIERZ:


Uwaga! Linki nie zakodowane tylko dla zarejestrowanych użytkowników!

Nie masz konta? Zarejestruj się za darmo!
----------------
Links are not encoded only for registered users only! Plese login or register!


Dziękuje za poswięcony czas i pozdrawiam smile

Informacje

Jeżeli chcesz skomentować artykuł musisz być zarejestrowany na stronie.