EXSite.pl - Portal ze wszystkim Mamy tutaj wszystko

NIE MASZ JESZCZE KONTA? ZAREJESTRUJ SIĘ ZA DARMO!   
Przypomnij hasło X

Rzeź / Carnage (2011) CAM.XviD-MiSTERE

Dodał: GHunter 16 Listopad 2011 23:22


Rzeź / Carnage (2011) CAM.XviD-MiSTERE

Rzeź / Carnage (2011) CAM.XviD-MiSTERE

Rzeź / Carnage (2011) CAM.XviD-MiSTERE

czas trwania: 1 godz. 19 min.
gatunek: Dramat, Komedia
premiera: 1 września 2011 (świat)
reżyseria: Roman Pola?ski
scenariusz: Roman Pola?ski, Yasmina Reza


Kinowa wersja sztuki Yasminy Rezy, "God of Carnage", w reżyserii Romana Pola?skiego. Dwie pary małże?skie, Alan (Christoph Waltz) i Nancy (Kate Winslet) oraz Michael (John C. Reilly) i Penelope (Jodie Foster), spotykają się, aby odbyć rozmowę na temat bójki swoich dzieci. Początkowo niewinna konwersacja stopniowo zaczyna przeradzać się w jeden, wielki chaos. Do głosu dochodzą wzajemne pretensje i oskarżenia. Poruszone zostają także kontrowersyjne tematy niezwiązane z pierwotnym celem dyskusji - począwszy od mizoginizmu, poprzez uprzedzenia rasowe, a sko?czywszy na homofobii.

Source:
V: TNZ 720p
A: EVOUTiON

Video
ID : 0
Format : MPEG-4 Visual
Format profile : Advanced Simple@L5
Format settings, BVOP : 2
Format settings, QPel : No
Format settings, GMC : No warppoints
Format settings, Matrix : Default (H.263)
Muxing mode : Packed bitstream
Codec ID : XVID
Codec ID/Hint : XviD
Duration : 1h 15mn
Bit rate : 2 585 Kbps
Width : 720 pixels
Height : 304 pixels
Display aspect ratio : 2.35:1
Frame rate : 25.000 fps
Color space : YUV
Chroma subsampling : 4:2:0
Bit depth : 8 bits
Scan type : Progressive
Compression mode : Lossy
Bits/(Pixel*Frame) : 0.472
Stream size : 1.36 GiB (95%)
Writing library : XviD 64

Audio
ID : 1
Format : MPEG Audio
Format version : Version 1
Format profile : Layer 3
Mode : Joint stereo
Mode extension : MS Stereo
Codec ID : 55
Codec ID/Hint : MP3
Duration : 1h 15mn
Bit rate mode : Variable
Bit rate : 120 Kbps
Nominal bit rate : 128 Kbps
Channel(s) : 2 channels
Sampling rate : 48.0 KHz
Compression mode : Lossy
Stream size : 64.6 MiB (4%)
Alignment : Aligned on interleaves
Interleave, duration : 24 ms (0.60 video frame)



Screeny:
Rzeź / Carnage (2011) CAM.XviD-MiSTERE
Rzeź / Carnage (2011) CAM.XviD-MiSTERE
Rzeź / Carnage (2011) CAM.XviD-MiSTERE
Rzeź / Carnage (2011) CAM.XviD-MiSTERE




Próbka:

http://www6.zippyshare.com/v/36908297/file.html






Pojedynczy link - klikasz - pobierasz - oglądasz :-)













4 lub 5 serwerów. Więcej paczek - szybciej ściągasz naprzemiennie :-)


Rzeź / Carnage (2011) CAM.XviD-MiSTERE
Uwaga! Linki nie zakodowane tylko dla zarejestrowanych użytkowników!

Nie masz konta? Zarejestruj się za darmo!
----------------
Links are not encoded only for registered users only! Plese login or register!

Bez hasła, rzecz jasna.
Miłego seansu! :-)

Rzeź / Carnage (2011) CAM.XviD-MiSTERE
Zobacz inne moje newsy na EXSite.pl



Zapisz się i bądź na bieżąco! :-)
Rzeź / Carnage (2011) CAM.XviD-MiSTERE

Spodobało się? W takim razie:Rzeź / Carnage (2011) CAM.XviD-MiSTERE
FAQ [w związku z pojawiającymi się pytaniami na priv]:PL - film z polskim lektoremPLDub / DubPL - film z polskim dubbingiemSubPL / PLSUB / Napisy PL - film z napisami, czasami wtopionymi, czasami nie [jeśli są wtopione - umieszczam taką informację :-)]

Użytkownik VIP

NonSceneVIP

#1 | Dodany: 16 Listopad 2011 23:22

fellow
Użytkownik VIP

amh91VIP

#2 | Dodany: 16 Listopad 2011 23:24

;;;;;
.

Audycje - DJ HIT - 18.05.2012 - Hot Hits

Gorąco Polecam ! - Zippyshare.com


.
Użytkownik VIP

ghwaySuper Uploader

#4 | Dodany: 17 Listopad 2011 00:01

Rzeź / Carnage (2011) CAM.XviD-EVOUTiON

Dane techniczne:
Release Name: Carnage.2011.CAM.XviD-EVOUTiON
Size: 700 MB
Video: XviD | 720?304 | 1168 kbit/s
Audio: English | MP3 | 128 Kbps
Runtime: 1:27:49


Download - 1 link:

Fileserve
Uwaga! Linki nie zakodowane tylko dla zarejestrowanych użytkowników!

Nie masz konta? Zarejestruj się za darmo!
----------------
Links are not encoded only for registered users only! Plese login or register!


Wupload
Uwaga! Linki nie zakodowane tylko dla zarejestrowanych użytkowników!

Nie masz konta? Zarejestruj się za darmo!
----------------
Links are not encoded only for registered users only! Plese login or register!


Filesonic
Uwaga! Linki nie zakodowane tylko dla zarejestrowanych użytkowników!

Nie masz konta? Zarejestruj się za darmo!
----------------
Links are not encoded only for registered users only! Plese login or register!
Użytkownik VIP

MotyleczekUploader

#5 | Dodany: 17 Listopad 2011 00:08


Rzeź / Carnage (2011) CAM.XviD-EVOUTiON

Format : AVI at 1 301 Kbps
Length : 700 MiB for 1h 15mn 12s 920ms
Video #0 : MPEG-4 Visual at 1 168 Kbps
Aspect : 720 x 304 (2.368) at 25.000 fps
Audio #0 : MPEG Audio at 120 Kbps
Infos : 2 channels, 48.0 KHz

Uwaga! Linki nie zakodowane tylko dla zarejestrowanych użytkowników!

Nie masz konta? Zarejestruj się za darmo!
----------------
Links are not encoded only for registered users only! Plese login or register!
Użytkownik VIP

mixer88Użytkownik

#6 | Dodany: 17 Listopad 2011 15:36

ok
Użytkownik VIP

kupczanUżytkownik

#7 | Dodany: 18 Listopad 2011 20:22

Rzeź / Carnage (2011) CAM.XviD-EVOUTiON

Dane techniczne
Release Name: Carnage.2011.CAM.XviD-EVOUTiON
Size: 700 MB
Video: XviD | 720?304 | 1168 kbit/s
Audio: English | MP3 | 128 Kbps
Runtime: 1:27:49



Download

Wupload
Uwaga! Linki nie zakodowane tylko dla zarejestrowanych użytkowników!

Nie masz konta? Zarejestruj się za darmo!
----------------
Links are not encoded only for registered users only! Plese login or register!


Filesonic
Uwaga! Linki nie zakodowane tylko dla zarejestrowanych użytkowników!

Nie masz konta? Zarejestruj się za darmo!
----------------
Links are not encoded only for registered users only! Plese login or register!
http://rapids.pl/52217
Użytkownik VIP

globus911Użytkownik

#8 | Dodany: 21 Grudzień 2011 11:24

Nie ma lektora, nie ma napisów to spier...cie.

Informacje

Jeżeli chcesz skomentować artykuł musisz być zarejestrowany na stronie.