EXSite.pl - Portal ze wszystkim Mamy tutaj wszystko

NIE MASZ JESZCZE KONTA? ZAREJESTRUJ SIĘ ZA DARMO!   
Przypomnij hasło X

Warrior (2011) TS.XviD-USM

Dodał: GHunter 18 Listopad 2011 03:02


Warrior (2011) TS.XviD-USM

Warrior (2011) TS.XviD-USM

Warrior (2011) TS.XviD-USM


czas trwania: 2 godz. 20 min.
gatunek: Dramat, Akcja, Sportowy
premiera: 2 grudnia 2011 (Polska) 9 września 2011 (świat)
reżyseria: Gavin O'Connor
scenariusz: Gavin O'Connor, Anthony Tambakis


Nawiedzany tragiczną przeszłością były żołnierz marine, Tony Conlin (Tom Hardy), powraca do rodzinnego Pittsburgha. Zabiegając o wsparcie ojca Paddy'ego (Nick Nolte), byłego alkoholika i trenera, postanawia wziąć udział w turnieju mieszanych sztuk walki (MMA). Są to zawody wysokiego ryzyka, których nagrodą jest największa suma pieniędzy w dziejach sportu. Podczas gdy Tony przeciera sobie szlak do wygranej, jego brat Brendan (Joel Edgerton), były wojownik MMA, a obecnie nauczyciel w szkole, ledwo wiąże koniec z ko?cem. Gdy Brendan zostaje zawieszony w pracy - powraca na amatorski ring by zapewnić byt rodzinie. Niestety, mimo, że minęło kilka lat, jego stosunki z Tonym i ojcem są nadal napięte. Nieoczekiwanie, drogi dwojga braci krzyżują się na ringu...




Warrior.2011.720p.HDCAM.TNZ
reCodeM8-KinG RG

IMDB:

http://www.imdb.com/title/tt1291584/

Video
ID : 0
Format : MPEG-4 Visual
Format profile : Advanced Simple@L5
Format settings, BVOP : 2
Format settings, QPel : No
Format settings, GMC : No warppoints
Format settings, Matrix : Default (MPEG)
Muxing mode : Packed bitstream
Codec ID : XVID
Codec ID/Hint : XviD
Duration : 2h 7mn
Bit rate : 2 102 Kbps
Width : 720 pixels
Height : 288 pixels
Display aspect ratio : 2.500
Frame rate : 25.000 fps
Color space : YUV
Chroma subsampling : 4:2:0
Bit depth : 8 bits
Scan type : Progressive
Compression mode : Lossy
Bits/(Pixel*Frame) : 0.405
Stream size : 1.87 GiB (94%)
Writing library : XviD 64

Audio
ID : 1
Format : MPEG Audio
Format version : Version 1
Format profile : Layer 3
Codec ID : 55
Codec ID/Hint : MP3
Duration : 2h 7mn
Bit rate mode : Constant
Bit rate : 128 Kbps
Channel(s) : 2 channels
Sampling rate : 44.1 KHz
Compression mode : Lossy
Stream size : 117 MiB (6%)
Alignment : Split accross interleaves
Interleave, duration : 40 ms (1.00 video frame)
Interleave, preload duration : 500 ms



Warrior (2011) TS.XviD-USM
Uwaga! Linki nie zakodowane tylko dla zarejestrowanych użytkowników!

Nie masz konta? Zarejestruj się za darmo!
----------------
Links are not encoded only for registered users only! Plese login or register!



Użytkownik VIP

GHunter Użytkownik

#1 | Dodany: 18 Listopad 2011 03:15

:-)
Użytkownik VIP

michas85plUżytkownik

#2 | Dodany: 18 Listopad 2011 05:40

ok
Użytkownik VIP

ghwaySuper Uploader

#3 | Dodany: 18 Listopad 2011 10:18

Warrior (2011) TS.XviD-MiSTERE

Dane techniczne:
Release: TS.XviD-MiSTERE
Waga: 2000 MB
Audio: LiNE [eng]
VIDEO: [XVID] 720x288 24bpp 25.000 fps 2101.6 kbps (256.5 kbyte/s)
AUDIO: 44100 Hz, 2 ch, s16le, 128.0 kbit/9.07% (ratio: 16000->176400)


Download:

Fileserve
Uwaga! Linki nie zakodowane tylko dla zarejestrowanych użytkowników!

Nie masz konta? Zarejestruj się za darmo!
----------------
Links are not encoded only for registered users only! Plese login or register!


Wupload
Uwaga! Linki nie zakodowane tylko dla zarejestrowanych użytkowników!

Nie masz konta? Zarejestruj się za darmo!
----------------
Links are not encoded only for registered users only! Plese login or register!


Filesonic
Uwaga! Linki nie zakodowane tylko dla zarejestrowanych użytkowników!

Nie masz konta? Zarejestruj się za darmo!
----------------
Links are not encoded only for registered users only! Plese login or register!
Użytkownik VIP

MotyleczekUploader

#4 | Dodany: 18 Listopad 2011 10:47


Warrior (2011) iTA.CAM.XviD-TNZ


Audio: KiNO [iTA]
VIDEO: [XVID] 656x272 12bpp 25.000 fps 1115.6 kbps (136.2 kbyte/s)
AUDIO: 48000 Hz, 2 ch, s16le, 128.0 kbit/8.33% (ratio: 16000->192000)

Uwaga! Linki nie zakodowane tylko dla zarejestrowanych użytkowników!

Nie masz konta? Zarejestruj się za darmo!
----------------
Links are not encoded only for registered users only! Plese login or register!
Użytkownik VIP

kupczanUżytkownik

#5 | Dodany: 18 Listopad 2011 20:24

Warrior (2011) TS.XviD-MiSTERE

Dane techniczne
Release: TS.XviD-MiSTERE
Waga: 2000 MB
Audio: LiNE [eng]
VIDEO: [XVID] 720x288 24bpp 25.000 fps 2101.6 kbps (256.5 kbyte/s)
AUDIO: 44100 Hz, 2 ch, s16le, 128.0 kbit/9.07% (ratio: 16000->176400)



Download

Wupload
Uwaga! Linki nie zakodowane tylko dla zarejestrowanych użytkowników!

Nie masz konta? Zarejestruj się za darmo!
----------------
Links are not encoded only for registered users only! Plese login or register!


Filesonic
Uwaga! Linki nie zakodowane tylko dla zarejestrowanych użytkowników!

Nie masz konta? Zarejestruj się za darmo!
----------------
Links are not encoded only for registered users only! Plese login or register!
http://rapids.pl/52217

Informacje

Jeżeli chcesz skomentować artykuł musisz być zarejestrowany na stronie.