EXSite.pl - Portal ze wszystkim Mamy tutaj wszystko

NIE MASZ JESZCZE KONTA? ZAREJESTRUJ SIĘ ZA DARMO!   
Przypomnij hasło X

Warrior (2011) SCREENER.XVID.AC3-TRiNiTY

Dodał: ampatinis 22 Listopad 2011 21:37


Warrior (2011) SCREENER.XVID.AC3-TRiNiTY

Warrior (2011) SCREENER.XVID.AC3-TRiNiTY

Warrior (2011) SCREENER.XVID.AC3-TRiNiTY
czas trwania: 2 godz. 20 min.
gatunek: Dramat, Akcja, Sportowy
premiera: 2 grudnia 2011 (Polska) 9 września 2011 (świat)
reżyseria: Gavin O'Connor
scenariusz: Gavin O'Connor, Anthony Tambakis


Nawiedzany tragiczną przeszłością były żołnierz marine, Tony Conlin (Tom Hardy), powraca do rodzinnego Pittsburgha. Zabiegając o wsparcie ojca Paddy'ego (Nick Nolte), byłego alkoholika i trenera, postanawia wziąć udział w turnieju mieszanych sztuk walki (MMA). Są to zawody wysokiego ryzyka, których nagrodą jest największa suma pieniędzy w dziejach sportu. Podczas gdy Tony przeciera sobie szlak do wygranej, jego brat Brendan (Joel Edgerton), były wojownik MMA, a obecnie nauczyciel w szkole, ledwo wiąże koniec z ko?cem. Gdy Brendan zostaje zawieszony w pracy - powraca na amatorski ring by zapewnić byt rodzinie. Niestety, mimo, że minęło kilka lat, jego stosunki z Tonym i ojcem są nadal napięte. Nieoczekiwanie, drogi dwojga braci krzyżują się na ringu...

General
Complete name : Warrior 2011 SCREENER XVID AC3-TRiNiTY.avi
Format : AVI
Format/Info : Audio Video Interleave
File size : 1.41 GiB
Duration : 2h 19mn
Overall bit rate : 1 443 Kbps
Writing library : VirtualDub build 30091/release

Video
ID : 0
Format : MPEG-4 Visual
Format profile : Advanced Simple@L5
Format settings, BVOP : 1
Format settings, QPel : No
Format settings, GMC : No warppoints
Format settings, Matrix : Default (H.263)
Muxing mode : Packed bitstream
Codec ID : XVID
Codec ID/Hint : XviD
Duration : 2h 19mn
Bit rate : 1 049 Kbps
Width : 720 pixels
Height : 304 pixels
Display aspect ratio : 2.35:1
Frame rate : 25.000 fps
Color space : YUV
Chroma subsampling : 4:2:0
Bit depth : 8 bits
Scan type : Progressive
Compression mode : Lossy
Bits/(Pixel*Frame) : 0.192
Stream size : 1.03 GiB (73%)
Writing library : XviD 1.2.1 (UTC 2008-12-04)

Audio
ID : 1
Format : AC-3
Format/Info : Audio Coding 3
Mode extension : CM (complete main)
Codec ID : 2000
Duration : 2h 19mn
Bit rate mode : Constant
Bit rate : 384 Kbps
Channel(s) : 2 channels
Channel positions : Front: L R
Sampling rate : 48.0 KHz
Bit depth : 16 bits
Compression mode : Lossy
Stream size : 384 MiB (27%)
Alignment : Aligned on interleaves
Interleave, duration : 40 ms (1.00 video frame)
Interleave, preload duration : 512 ms


Warrior (2011) SCREENER.XVID.AC3-TRiNiTY

Warrior (2011) SCREENER.XVID.AC3-TRiNiTY Warrior (2011) SCREENER.XVID.AC3-TRiNiTY

Warrior (2011) SCREENER.XVID.AC3-TRiNiTY
Uwaga! Linki nie zakodowane tylko dla zarejestrowanych użytkowników!

Nie masz konta? Zarejestruj się za darmo!
----------------
Links are not encoded only for registered users only! Plese login or register!



Użytkownik VIP

BlodVarkVIP Uploader

#1 | Dodany: 22 Listopad 2011 21:38

laughing
Użytkownik VIP

KliomtVIP Uploader

#2 | Dodany: 22 Listopad 2011 21:39

Warrior (2011) SCREENER XVID AC3 Purple Dragon


THEATRE DATE........: 14 September 2011 (France)
FILE SIZE........... 1.66 GiB
SIZE................. 1.66 GiB
SOURCE...............Warrior (2011) BIG THANX
AUDIO...............:same as above BIG THANKS
Video:
Bit rate : 1 498 Kbps
Width : 720 pixels
Height : 304 pixels
Audio:
Bit rate mode : Constant
Bit rate : 192 Kbps
Channel(s) : 2 channels
Uwaga! Linki nie zakodowane tylko dla zarejestrowanych użytkowników!

Nie masz konta? Zarejestruj się za darmo!
----------------
Links are not encoded only for registered users only! Plese login or register!
✿♫ ❤‿♥ ☆•°*”˜♪˜”*°•☆ ◔‿◕ ♫✿

Informacje

Jeżeli chcesz skomentować artykuł musisz być zarejestrowany na stronie.