EXSite.pl - Portal ze wszystkim Mamy tutaj wszystko

NIE MASZ JESZCZE KONTA? ZAREJESTRUJ SIĘ ZA DARMO!   
Przypomnij hasło X

Saga Zmierzch: Przed świtem - Część 1 / The Twilight Saga: Breaking Dawn - Part 1 (2011) TS.x264-ShAaNiG

Dodał: YOMATA 25 Listopad 2011 02:51


Saga Zmierzch: Przed świtem - Część 1 / The Twilight Saga: Breaking Dawn - Part 1 (2011) TS.x264-ShAaNiG

Saga Zmierzch: Przed świtem - Część 1 / The Twilight Saga: Breaking Dawn - Part 1 (2011) TS.x264-ShAaNiG

Saga Zmierzch: Przed świtem - Część 1 / The Twilight Saga: Breaking Dawn - Part 1 (2011) TS.x264-ShAaNiG
czas trwania: 1 godz. 57 min.
gatunek: Horror, Romans
premiera: 18 listopada 2011 (Polska) 30 października 2011 (świat)
reżyseria: Bill Condon
scenariusz: Melissa Rosenberg


Pierwsza część finału najpopularniejszej sagi na świecie! Epicka opowieść o miłości nie z tego świata! Po pięknym ślubie i hucznym weselu, Bella (Kristen Stewart) i Edward (Robert Pattinson) wyjeżdżają na miesiąc miodowy do Rio de Janeiro. W tym gorącym mieście karnawału, młodzi mogą wreszcie w pełni cieszyć się sobą i oddawać namiętności. Wkrótce Bella odkrywa, że jest w ciąży.

Size: 478579975 bytes (456.41 MiB), duration: 01:46:56, avg.bitrate: 597 kb/s
Audio: aac, 44100 Hz, stereo
Video: h264, yuv420p, 720x304, 24.00 fps(r)

Saga Zmierzch: Przed świtem - Część 1 / The Twilight Saga: Breaking Dawn - Part 1 (2011) TS.x264-ShAaNiG
Saga Zmierzch: Przed świtem - Część 1 / The Twilight Saga: Breaking Dawn - Part 1 (2011) TS.x264-ShAaNiG Saga Zmierzch: Przed świtem - Część 1 / The Twilight Saga: Breaking Dawn - Part 1 (2011) TS.x264-ShAaNiG Saga Zmierzch: Przed świtem - Część 1 / The Twilight Saga: Breaking Dawn - Part 1 (2011) TS.x264-ShAaNiG Saga Zmierzch: Przed świtem - Część 1 / The Twilight Saga: Breaking Dawn - Part 1 (2011) TS.x264-ShAaNiG Saga Zmierzch: Przed świtem - Część 1 / The Twilight Saga: Breaking Dawn - Part 1 (2011) TS.x264-ShAaNiG

Saga Zmierzch: Przed świtem - Część 1 / The Twilight Saga: Breaking Dawn - Part 1 (2011) TS.x264-ShAaNiG
Uwaga! Linki nie zakodowane tylko dla zarejestrowanych użytkowników!

Nie masz konta? Zarejestruj się za darmo!
----------------
Links are not encoded only for registered users only! Plese login or register!



Użytkownik VIP

UruK21VIP

#1 | Dodany: 25 Listopad 2011 19:07

Saga Zmierzch: Przed świtem - Część 1 /
The Twilight Saga: Breaking Dawn - Part 1 (2011)
TS.XviD.DTRG


Tytuł............: Saga Zmierzch: Przed świtem - Część 1
Źródło...........: CAM
Video............: 1672 kbps / XviD
Audio............: 192  kbps / MP3 / 2.0 / ENG
Rozdzielczość....: 624x262
FPS..............: 24
Czas trwania.....: 1h 46 min
Rozmiar..........: 1.35 GB
Dodatkowe info...: Brak.

rodzaj kompresji: .rar
zawartość uploadu: plik .avi
wersja językowa: ENG
hasło: brak
brak danych naprawczych
linki wymienne

Uwaga! Linki nie zakodowane tylko dla zarejestrowanych użytkowników!

Nie masz konta? Zarejestruj się za darmo!
----------------
Links are not encoded only for registered users only! Plese login or register!
Użytkownik VIP

hulkkUżytkownik

#2 | Dodany: 16 Grudzień 2011 21:39

Zmierzch: Przed switem / Twilight: Breaking Dawn cz.1 (2011) CAM Napisy PL wtopione




Format : AVI at 942 Kb/s
Length : 694 MB for 1h 43 min. 4s 160ms

Video #0 : MPEG-4 Visual at 804 Kb/s
Aspect : 720 x 304 (2.368) at 25.000 fps

Audio #0 : MPEG Audio at 128 Kb/s
Infos : 2 kanały, 44,1 KHz





Waga: 694 MB
Kompresja: brak
Zawartosc uploadu: plik .avi
Wersja jezykowa: Napisy PL wtopione



FileSonic

Uwaga! Linki nie zakodowane tylko dla zarejestrowanych użytkowników!

Nie masz konta? Zarejestruj się za darmo!
----------------
Links are not encoded only for registered users only! Plese login or register!



Filejungle

Uwaga! Linki nie zakodowane tylko dla zarejestrowanych użytkowników!

Nie masz konta? Zarejestruj się za darmo!
----------------
Links are not encoded only for registered users only! Plese login or register!



FileServe

Uwaga! Linki nie zakodowane tylko dla zarejestrowanych użytkowników!

Nie masz konta? Zarejestruj się za darmo!
----------------
Links are not encoded only for registered users only! Plese login or register!
Użytkownik VIP

delirekUżytkownik

#3 | Dodany: 20 Grudzień 2011 17:13

..:::Zmierzch: Przed switem / Twilight: Breaking Dawn cz.1 (2011) CAM :::...

Format                                   : MPEG-PS
File size                                : 1.28 GiB
Duration                                 : 1h 46mn
Overall bit rate mode                    : Variable
Overall bit rate                         : 1 717 Kbps

Video
Duration                                 : 1h 46mn
Bit rate mode                            : Variable
Bit rate                                 : 1 363 Kbps
Width                                    : 640 pixels
Height                                   : 480 pixels
Display aspect ratio                     : 2.2:1
Frame rate                               : 23.976 fps
Color space                              : YUV
Chroma subsampling                       : 4:2:0
Bit depth                                : 8 bits
Bits/(Pixel*Frame)                       : 0.185
Stream size                              : 1.02 GiB (79%)

Audio
ID                                       : 192 (0xC0)
Format                                   : MPEG Audio
Format version                           : Version 1
Format profile                           : Layer 3
Mode                                     : Joint stereo
Mode extension                           : MS Stereo
Duration                                 : 1h 46mn
Bit rate mode                            : Constant
Bit rate                                 : 320 Kbps
Channel(s)                               : 2 channels
Sampling rate                            : 48.0 KHz
Compression mode                         : Lossy
Stream size                              : 245 MiB (19%)

POBiERZ / DOWNLOAD


~ LINKI MOŻNA POBIERAĆ NA PRZEMIAN ~

Uwaga! Linki nie zakodowane tylko dla zarejestrowanych użytkowników!

Nie masz konta? Zarejestruj się za darmo!
----------------
Links are not encoded only for registered users only! Plese login or register!


Pami?taj pobrany plik nale?y traktowa? tylko i wy?ącznie jako kopie zapasową. Jeśli nie posiadasz orygina?u ka?dy plik nale?y usuną? po up?ywie 24h od pobrania!

Informacje

Jeżeli chcesz skomentować artykuł musisz być zarejestrowany na stronie.