EXSite.pl - Portal ze wszystkim Mamy tutaj wszystko

NIE MASZ JESZCZE KONTA? ZAREJESTRUJ SIĘ ZA DARMO!   
Przypomnij hasło X

Saga Zmierzch: Przed świtem - Część 1 / The Twilight Saga: Breaking Dawn - Part 1 (2011) 720p.TS.NEW.FULL.LINE.XViD.AC3-26K

Dodał: YOMATA 6 Grudzień 2011 23:41


Saga Zmierzch: Przed świtem - Część 1 / The Twilight Saga: Breaking Dawn - Part 1 (2011) 720p.TS.NEW.FULL.LINE.XViD.AC3-26K

Saga Zmierzch: Przed świtem - Część 1 / The Twilight Saga: Breaking Dawn - Part 1 (2011) 720p.TS.NEW.FULL.LINE.XViD.AC3-26K

Saga Zmierzch: Przed świtem - Część 1 / The Twilight Saga: Breaking Dawn - Part 1 (2011) 720p.TS.NEW.FULL.LINE.XViD.AC3-26K
czas trwania: 1 godz. 57 min.
gatunek: Horror, Romans
premiera: 18 listopada 2011 (Polska) 30 października 2011 (świat)
reżyseria: Bill Condon
scenariusz: Melissa Rosenberg


Pierwsza część finału najpopularniejszej sagi na świecie! Epicka opowieść o miłości nie z tego świata! Po pięknym ślubie i hucznym weselu, Bella (Kristen Stewart) i Edward (Robert Pattinson) wyjeżdżają na miesiąc miodowy do Rio de Janeiro. W tym gorącym mieście karnawału, młodzi mogą wreszcie w pełni cieszyć się sobą i oddawać namiętności. Wkrótce Bella odkrywa, że jest w ciąży.

Size: 1872646406 bytes (1.74 GiB), duration: 01:46:58, avg.bitrate: 2334 kb/s
Audio: ac3, 44100 Hz, stereo, 224 kb/s
Video: mpeg4, yuv420p, 1280x544, 25.00 fps(r)

Saga Zmierzch: Przed świtem - Część 1 / The Twilight Saga: Breaking Dawn - Part 1 (2011) 720p.TS.NEW.FULL.LINE.XViD.AC3-26K
Saga Zmierzch: Przed świtem - Część 1 / The Twilight Saga: Breaking Dawn - Part 1 (2011) 720p.TS.NEW.FULL.LINE.XViD.AC3-26K

Saga Zmierzch: Przed świtem - Część 1 / The Twilight Saga: Breaking Dawn - Part 1 (2011) 720p.TS.NEW.FULL.LINE.XViD.AC3-26K
Uwaga! Linki nie zakodowane tylko dla zarejestrowanych użytkowników!

Nie masz konta? Zarejestruj się za darmo!
----------------
Links are not encoded only for registered users only! Plese login or register!



Użytkownik VIP

amh91VIP

#1 | Dodany: 6 Grudzień 2011 23:43

;pp
.

Audycje - DJ HIT - 18.05.2012 - Hot Hits

Gorąco Polecam ! - Zippyshare.com


.
Użytkownik VIP

ghwaySuper Uploader

#2 | Dodany: 7 Grudzień 2011 09:19

ok
Użytkownik VIP

sucre_morphine12345Użytkownik

#3 | Dodany: 7 Grudzień 2011 09:41

thx
Użytkownik VIP

kapitalnieUżytkownik

#4 | Dodany: 8 Grudzień 2011 09:23

thx
Użytkownik VIP

DjNewtonUżytkownik

#5 | Dodany: 12 Grudzień 2011 22:22

Saga "Zmierzch": Przed świtem - Część 1 / The Twilight Saga: Breaking Dawn - Part 1 (2011) Subbed PL for iPhone / iPod Touch / Android


Dane techniczne:

   Video
      Codec : mp4v
      Width : 320 pixels
      Height : 144 pixels
      Frame rate : 25.000 fps
      
   Audio
      Codec : mp4a
      Sample Rate : 44100 Hz
      Channel(s) : 2 channels


Opis uploadu:
wielkość całości: 326MB
rodzaj kompresji: brak
zawartość uploadu: .mp4
wersja językowa: angielska
napisy: polskie, zespolone
archiwa: brak


Download:
Uwaga! Linki nie zakodowane tylko dla zarejestrowanych użytkowników!

Nie masz konta? Zarejestruj się za darmo!
----------------
Links are not encoded only for registered users only! Plese login or register!
Użytkownik VIP

hulkkUżytkownik

#6 | Dodany: 16 Grudzień 2011 21:53

Zmierzch: Przed switem / Twilight: Breaking Dawn cz.1 (2011) CAM Napisy PL wtopione




Format : AVI at 942 Kb/s
Length : 694 MB for 1h 43 min. 4s 160ms

Video #0 : MPEG-4 Visual at 804 Kb/s
Aspect : 720 x 304 (2.368) at 25.000 fps

Audio #0 : MPEG Audio at 128 Kb/s
Infos : 2 kanały, 44,1 KHz





Waga: 694 MB
Kompresja: brak
Zawartosc uploadu: plik .avi
Wersja jezykowa: Napisy PL wtopione



FileSonic

Uwaga! Linki nie zakodowane tylko dla zarejestrowanych użytkowników!

Nie masz konta? Zarejestruj się za darmo!
----------------
Links are not encoded only for registered users only! Plese login or register!



Filejungle

Uwaga! Linki nie zakodowane tylko dla zarejestrowanych użytkowników!

Nie masz konta? Zarejestruj się za darmo!
----------------
Links are not encoded only for registered users only! Plese login or register!



FileServe

Uwaga! Linki nie zakodowane tylko dla zarejestrowanych użytkowników!

Nie masz konta? Zarejestruj się za darmo!
----------------
Links are not encoded only for registered users only! Plese login or register!
Użytkownik VIP

delirekUżytkownik

#7 | Dodany: 20 Grudzień 2011 17:54

..:::Zmierzch: Przed switem / Twilight: Breaking Dawn cz.1 (2011) CAM :::...

Format                                   : MPEG-PS
File size                                : 1.28 GiB
Duration                                 : 1h 46mn
Overall bit rate mode                    : Variable
Overall bit rate                         : 1 717 Kbps

Video
Duration                                 : 1h 46mn
Bit rate mode                            : Variable
Bit rate                                 : 1 363 Kbps
Width                                    : 640 pixels
Height                                   : 480 pixels
Display aspect ratio                     : 2.2:1
Frame rate                               : 23.976 fps
Color space                              : YUV
Chroma subsampling                       : 4:2:0
Bit depth                                : 8 bits
Bits/(Pixel*Frame)                       : 0.185
Stream size                              : 1.02 GiB (79%)

Audio
ID                                       : 192 (0xC0)
Format                                   : MPEG Audio
Format version                           : Version 1
Format profile                           : Layer 3
Mode                                     : Joint stereo
Mode extension                           : MS Stereo
Duration                                 : 1h 46mn
Bit rate mode                            : Constant
Bit rate                                 : 320 Kbps
Channel(s)                               : 2 channels
Sampling rate                            : 48.0 KHz
Compression mode                         : Lossy
Stream size                              : 245 MiB (19%)

POBiERZ / DOWNLOAD


~ LINKI MOŻNA POBIERAĆ NA PRZEMIAN ~

Uwaga! Linki nie zakodowane tylko dla zarejestrowanych użytkowników!

Nie masz konta? Zarejestruj się za darmo!
----------------
Links are not encoded only for registered users only! Plese login or register!


Pami?taj pobrany plik nale?y traktowa? tylko i wy?ącznie jako kopie zapasową. Jeśli nie posiadasz orygina?u ka?dy plik nale?y usuną? po up?ywie 24h od pobrania!
Użytkownik VIP

matx23Gość

#8 | Dodany: 26 Kwiecień 2013 16:58

Saga Zmierzch: Przed świtem - Część 1 The Twilight Saga: Breaking Dawn - Part 1 (2011) [BRRip.XviD-BiDA] [Lektor PL]


====================
Release: PL.BRRip.XviD-BiDA
Waga : 691 MB
VIDEO : [XVID] 720x304 12bpp 25.000 fps 727.2 kbps (88.8 kbyte/s)
AUDIO : 48000 Hz, 2 ch, s16le, 128.0 kbit/8.33% (ratio: 16000->192000)
Język : Lektor PL


>>>BitShare<<<

Uwaga! Linki nie zakodowane tylko dla zarejestrowanych użytkowników!

Nie masz konta? Zarejestruj się za darmo!
----------------
Links are not encoded only for registered users only! Plese login or register!

>>>EgoFiles<<<

Uwaga! Linki nie zakodowane tylko dla zarejestrowanych użytkowników!

Nie masz konta? Zarejestruj się za darmo!
----------------
Links are not encoded only for registered users only! Plese login or register!


love

Informacje

Jeżeli chcesz skomentować artykuł musisz być zarejestrowany na stronie.