EXSite.pl - Portal ze wszystkim Mamy tutaj wszystko

NIE MASZ JESZCZE KONTA? ZAREJESTRUJ SIĘ ZA DARMO!   
Przypomnij hasło X

Saga Zmierzch: Przed świtem - Część 1 / The Twilight Saga: Breaking Dawn - Part 1 (2011) TS.NEW.FULL.LINE.XViD-INSPiRAL *NAPiSY PL* + x264

Dodał: savio39 15 Grudzień 2011 21:44

Użytkownik VIP

savio39VIP

#1 | Dodany: 9 Grudzień 2011 15:13

ok
UPLOAD WSTRZYMANY DO ODWO?ANiA.
WSZELKiE REUPLOADY i UPLOADY NiEMO?LiWE.
Użytkownik VIP

torpedomaxUżytkownik

#2 | Dodany: 9 Grudzień 2011 15:27

Saga Zmierzch: Przed świtem - Część 1 / The Twilight Saga: Breaking Dawn - Part 1 (2011) PL.SUBBED.1CD.TS.XviD-DX Napisy PL

General
      Complete name : The.Twilight.Saga Breaking.Dawn.Part.1.PL.SUBBED.1CD.TS.XviD-DX.avi
      Format : AVI
      File size : 700 MiB
      Duration : 1h 47mn
      Overall bit rate : 914 Kbps
   Video #0
      Codec ID : XVID
      Width : 720 pixels
      Height : 304 pixels
      Display aspect ratio : 2.35:1
      Frame rate : 25.000 fps
      Resolution : 24 bits
   Audio #1
      Codec ID : MP3
      Bit rate : 128 Kbps
      Channel(s) : 2 channels
      Sampling rate : 44.1 KHz

      Napisy PL Wtopione


Uwaga! Linki nie zakodowane tylko dla zarejestrowanych użytkowników!

Nie masz konta? Zarejestruj się za darmo!
----------------
Links are not encoded only for registered users only! Plese login or register!


Single link :

Uwaga! Linki nie zakodowane tylko dla zarejestrowanych użytkowników!

Nie masz konta? Zarejestruj się za darmo!
----------------
Links are not encoded only for registered users only! Plese login or register!


Saga Zmierzch: Przed świtem - Część 1 / The Twilight Saga: Breaking Dawn - Part 1 (2011) PL.SUBBED.2CD.TS.480p.AC3.XviD-DX Napisy PL

General
      Complete name : The.Twilight.Saga Breaking.Dawn.Part.1.PL.SUBBED.2CD.TS.480p.AC3.XviD-DX.avi
      Format : AVI
      File size : 1.36 GiB
      Duration : 1h 47mn
      Overall bit rate : 1 824 Kbps
   Video #0
      Codec ID : XVID
      Width : 720 pixels
      Height : 304 pixels
      Display aspect ratio : 2.35:1
      Frame rate : 25.000 fps
   Audio #1
      Format : AC-3
      Bit rate : 224 Kbps
      Channel(s) : 2 channels
      Channel positions : L R
      Sampling rate : 48.0 KHz

      Napisy PL Wtopione


Uwaga! Linki nie zakodowane tylko dla zarejestrowanych użytkowników!

Nie masz konta? Zarejestruj się za darmo!
----------------
Links are not encoded only for registered users only! Plese login or register!


Single link :

Uwaga! Linki nie zakodowane tylko dla zarejestrowanych użytkowników!

Nie masz konta? Zarejestruj się za darmo!
----------------
Links are not encoded only for registered users only! Plese login or register!


Resident Evil ( 2002 - 2012 ) Kolekcja Multi.BluRay.1080p.x264.DTS-HDMA.DTS.AC3-DX Lektor i Napisy PL

http://www.exsite.pl/filmy_video_movies/filmy-hd-dvd5-dvd9/789890-kolekcja-resident-evil-2002-2012-bluray1080pduallaudiodtsac3x264-dx-engpl-napisy-pl.html

Gwiezdne wojny / Star Wars (1977-2005) THE.COMPLETE.SAGA.MULTi.HQ.1080p.BluRay.x264.DTS-HDMA.DTS.AC3-DX
LEKTOR, DUBBING i NAPISY PL


http://wklej.to/iE7tg
Użytkownik VIP

ghwaySuper Uploader

#3 | Dodany: 10 Grudzień 2011 11:09

Saga Zmierzch: Przed świtem - Część 1 / The Twilight Saga: Breaking Dawn - Part 1 (2011) PLSUBBED.CAM.XviD-BiDA / Napisy PL

Dane techniczne:
Release: PLSUBBED.CAM.XviD-BiDA
Waga: 700 MB
Audio: KiNO [eng]
Napisy: PL, wtopione
VIDEO: [XVID] 720x304 24bpp 25.000 fps 804.0 kbps (98.1 kbyte/s)
AUDIO: 44100 Hz, 2 ch, s16le, 128.0 kbit/9.07% (ratio: 16000->176400)


Download - 450 MB Parts:

Fileserve
Uwaga! Linki nie zakodowane tylko dla zarejestrowanych użytkowników!

Nie masz konta? Zarejestruj się za darmo!
----------------
Links are not encoded only for registered users only! Plese login or register!


Filesonic
Uwaga! Linki nie zakodowane tylko dla zarejestrowanych użytkowników!

Nie masz konta? Zarejestruj się za darmo!
----------------
Links are not encoded only for registered users only! Plese login or register!


Filejungle
Uwaga! Linki nie zakodowane tylko dla zarejestrowanych użytkowników!

Nie masz konta? Zarejestruj się za darmo!
----------------
Links are not encoded only for registered users only! Plese login or register!


Uploadstation
Uwaga! Linki nie zakodowane tylko dla zarejestrowanych użytkowników!

Nie masz konta? Zarejestruj się za darmo!
----------------
Links are not encoded only for registered users only! Plese login or register!



Download - 1 link:

Fileserve
Uwaga! Linki nie zakodowane tylko dla zarejestrowanych użytkowników!

Nie masz konta? Zarejestruj się za darmo!
----------------
Links are not encoded only for registered users only! Plese login or register!


Filesonic
Uwaga! Linki nie zakodowane tylko dla zarejestrowanych użytkowników!

Nie masz konta? Zarejestruj się za darmo!
----------------
Links are not encoded only for registered users only! Plese login or register!


Filejungle
Uwaga! Linki nie zakodowane tylko dla zarejestrowanych użytkowników!

Nie masz konta? Zarejestruj się za darmo!
----------------
Links are not encoded only for registered users only! Plese login or register!


Uploadstation
Uwaga! Linki nie zakodowane tylko dla zarejestrowanych użytkowników!

Nie masz konta? Zarejestruj się za darmo!
----------------
Links are not encoded only for registered users only! Plese login or register!
Użytkownik VIP

kenu1983Użytkownik

#4 | Dodany: 10 Grudzień 2011 19:34

wiadomo cos o lepszej kopi R5 napszykład ?
Użytkownik VIP

hulkkUżytkownik

#5 | Dodany: 16 Grudzień 2011 21:55

Zmierzch: Przed switem / Twilight: Breaking Dawn cz.1 (2011) CAM Napisy PL wtopione




Format : AVI at 942 Kb/s
Length : 694 MB for 1h 43 min. 4s 160ms

Video #0 : MPEG-4 Visual at 804 Kb/s
Aspect : 720 x 304 (2.368) at 25.000 fps

Audio #0 : MPEG Audio at 128 Kb/s
Infos : 2 kanały, 44,1 KHz





Waga: 694 MB
Kompresja: brak
Zawartosc uploadu: plik .avi
Wersja jezykowa: Napisy PL wtopione



FileSonic

Uwaga! Linki nie zakodowane tylko dla zarejestrowanych użytkowników!

Nie masz konta? Zarejestruj się za darmo!
----------------
Links are not encoded only for registered users only! Plese login or register!



Filejungle

Uwaga! Linki nie zakodowane tylko dla zarejestrowanych użytkowników!

Nie masz konta? Zarejestruj się za darmo!
----------------
Links are not encoded only for registered users only! Plese login or register!



FileServe

Uwaga! Linki nie zakodowane tylko dla zarejestrowanych użytkowników!

Nie masz konta? Zarejestruj się za darmo!
----------------
Links are not encoded only for registered users only! Plese login or register!
Użytkownik VIP

marbet68Użytkownik

#6 | Dodany: 19 Grudzień 2011 20:50

Zmierzch: Przed switem / Twilight: Breaking Dawn cz.1 (2011) CAM
Najlepsza wersja audio dostępna na necie obecnie !!!

SiZE : 1,34 GB for 1h:46:56 min.
Video #0 : MPEG-2
Aspect : 640 x 480 23.98 fps

Audio :
Codec ID : MP3 - MPEG1 Lyer 3 - LAME 3.98
Bit rate : 320 Kb/s
Channel(s) : 2 channels stereo
Sampling rate : 48.0 KHz

Seems stream 0 codec frame rate differs from container frame rate: 47.95 (48000/1001) -> 23.98 (24000/1001)
Input #0, mpeg,
Duration: 01:46:56.15, start: 0.500000, bitrate: 1717 kb/s
Stream #0.0[0x1e0]: Video: mpeg2video, yuv420p, 640x480 [PAR 663:400 DAR 221:100], 104857 kb/s, 23.98 tbr, 90k tbn, 47.95 tbc
Stream #0.1[0x1c0]: Audio: mp3, 48000 Hz, stereo, s16, 320 kb/s

depositfiles :
http://depositfiles.com/files/x0l2n5m0x
Użytkownik VIP

delirekUżytkownik

#7 | Dodany: 20 Grudzień 2011 18:03

..:::Zmierzch: Przed switem / Twilight: Breaking Dawn cz.1 (2011) CAM :::...

Format                                   : MPEG-PS
File size                                : 1.28 GiB
Duration                                 : 1h 46mn
Overall bit rate mode                    : Variable
Overall bit rate                         : 1 717 Kbps

Video
Duration                                 : 1h 46mn
Bit rate mode                            : Variable
Bit rate                                 : 1 363 Kbps
Width                                    : 640 pixels
Height                                   : 480 pixels
Display aspect ratio                     : 2.2:1
Frame rate                               : 23.976 fps
Color space                              : YUV
Chroma subsampling                       : 4:2:0
Bit depth                                : 8 bits
Bits/(Pixel*Frame)                       : 0.185
Stream size                              : 1.02 GiB (79%)

Audio
ID                                       : 192 (0xC0)
Format                                   : MPEG Audio
Format version                           : Version 1
Format profile                           : Layer 3
Mode                                     : Joint stereo
Mode extension                           : MS Stereo
Duration                                 : 1h 46mn
Bit rate mode                            : Constant
Bit rate                                 : 320 Kbps
Channel(s)                               : 2 channels
Sampling rate                            : 48.0 KHz
Compression mode                         : Lossy
Stream size                              : 245 MiB (19%)

POBiERZ / DOWNLOAD


~ LINKI MOŻNA POBIERAĆ NA PRZEMIAN ~

Uwaga! Linki nie zakodowane tylko dla zarejestrowanych użytkowników!

Nie masz konta? Zarejestruj się za darmo!
----------------
Links are not encoded only for registered users only! Plese login or register!


Pami?taj pobrany plik nale?y traktowa? tylko i wy?ącznie jako kopie zapasową. Jeśli nie posiadasz orygina?u ka?dy plik nale?y usuną? po up?ywie 24h od pobrania!
Użytkownik VIP

pyrkoszycaUżytkownik

#8 | Dodany: 30 Grudzień 2011 19:20

Linki wygasły:(
Użytkownik VIP

peny2Użytkownik

#9 | Dodany: 26 Styczeń 2012 14:25

The.Twilight.Saga.Breaking.Dawn.Part.1.2011.BDRip.XviD-ALLiANCE



Dane Techniczne:

  Parametry:
Format            : AVI at 1.686 Kb/s
Length            : 700 MB for 58 min. 1s 859ms

Video #0          : MPEG-4 Visual at 1.229 Kb/s
Aspect            : 576 x 240 (2.400) at 23.976 fps

Audio #0          : AC-3 at 448 Kb/s
Infos             : 6 kanalów, 48,0 KHz


Opis uploadu:

  wielkość uploadu: 1,38gb
rodzaj kompresji: rar
zawartość uploadu: plik .avi
wersja językowa: eng
brak danych naprawczych
brak hasła


Download:

UPLOADED

Uwaga! Linki nie zakodowane tylko dla zarejestrowanych użytkowników!

Nie masz konta? Zarejestruj się za darmo!
----------------
Links are not encoded only for registered users only! Plese login or register!

Informacje

Jeżeli chcesz skomentować artykuł musisz być zarejestrowany na stronie.