EXSite.pl - Portal ze wszystkim Mamy tutaj wszystko

NIE MASZ JESZCZE KONTA? ZAREJESTRUJ SIĘ ZA DARMO!   
Przypomnij hasło X

ścigana / Haywire (2012) CAM.READNFO.XViD.AC3-26K

Dodał: niedzwiedzx 25 Styczeń 2012 23:47


ścigana / Haywire (2012) CAM.READNFO.XViD.AC3-26K


ścigana / Haywire (2012) CAM.READNFO.XViD.AC3-26K


Mallory Kane (Gina Carano) jest piękną, tajną agentką CIA, przyjmującą jedynie zlecenia najwyższej wagi, ekstremalnie tajne i trudne, na które władze nie mogą zezwolić i o których przywódcy pa?stw nie powinni wiedzieć. Po udanej misji uwolnienia zakładników z Barcelony, Mallory dostaje kolejne zadanie w Dublinie. Gdy operacja nie przebiega po jej myśli, dowiaduje się, że została przechytrzona i musi użyć wszystkich swoich umiejętności, sztuczek i możliwości ucieczki, by nie zostać schwytaną w międzynarodowym polowaniu. Wraca do Stanów Zjednoczonych by ochronić swoją rodzinę i zemścić się na tych, którzy ją zdradzili...

INFO:


ścigana / Haywire (2012) CAM.READNFO.XViD.AC3-26K

Bez Hasła / No Pass

ścigana / Haywire (2012) CAM.READNFO.XViD.AC3-26K

ścigana / Haywire (2012) CAM.READNFO.XViD.AC3-26K

Uwaga! Linki nie zakodowane tylko dla zarejestrowanych użytkowników!

Nie masz konta? Zarejestruj się za darmo!
----------------
Links are not encoded only for registered users only! Plese login or register!

ścigana / Haywire (2012) CAM.READNFO.XViD.AC3-26K

ścigana / Haywire (2012) CAM.READNFO.XViD.AC3-26K

Uwaga! Linki nie zakodowane tylko dla zarejestrowanych użytkowników!

Nie masz konta? Zarejestruj się za darmo!
----------------
Links are not encoded only for registered users only! Plese login or register!

ścigana / Haywire (2012) CAM.READNFO.XViD.AC3-26K

ścigana / Haywire (2012) CAM.READNFO.XViD.AC3-26K

Uwaga! Linki nie zakodowane tylko dla zarejestrowanych użytkowników!

Nie masz konta? Zarejestruj się za darmo!
----------------
Links are not encoded only for registered users only! Plese login or register!


Użytkownik VIP

niedzwiedzxVIP

#1 | Dodany: 25 Styczeń 2012 23:48

ok
Jeśli chcesz rozśmieszy? Boga, opowiedz mu o twoich planach na przysz?oś?.
Użytkownik VIP

RiCo26VIP

#2 | Dodany: 25 Styczeń 2012 23:49

Nazwa releasu:

ścigana / Haywire (2012) CAM.READNFO.XViD-INSPiRAL

Dane techniczne:
[spoiler]VIDEO - Lum1x THANKS
AUDIO - yOUTUBE and Speeddy THANKS
SUBS  - None Add

STATS:

Video
ID                             : 0
Format                         : MPEG-4 Visual
Format profile                 : Advanced Simple@L5
Format settings, BVOP            : 2
Format settings, QPel            : No
Format settings, GMC           : No warppoints
Format settings, Matrix          : Default (MPEG)
Muxing mode                      : Packed bitstream
Codec ID                       : XVID
Codec ID/Hint                    : XviD
Duration                       : 1h 26mn
Bit rate                       : 2 094 Kbps
Width                            : 720 pixels
Height                         : 304 pixels
Display aspect ratio           : 2.35:1
Frame rate                     : 25.000 fps
Color space                      : YUV
Chroma subsampling             : 4:2:0
Bit depth                        : 8 bits
Scan type                        : Progressive
Compression mode               : Lossy
Bits/(Pixel*Frame)             : 0.383
Stream size                      : 1.27 GiB (94%)
Writing library                  : XviD 64

Audio
ID                             : 1
Format                         : MPEG Audio
Format version                 : Version 1
Format profile                 : Layer 3
Mode                           : Joint stereo
Mode extension                 : MS Stereo
Codec ID                       : 55
Codec ID/Hint                    : MP3
Duration                       : 1h 26mn
Bit rate mode                    : Constant
Bit rate                       : 128 Kbps
Channel(s)                     : 2 channels
Sampling rate                    : 44.1 KHz
Compression mode               : Lossy
Stream size                      : 79.4 MiB (6%)
Alignment                        : Split accross interleaves
Interleave, duration           : 40 ms (1.00 video frame)
Interleave, preload duration   : 500 ms [/spoiler]





Opis uploadu:
wielkość całości:
rodzaj kompresji: .rar
zawartość uploadu: plik .avi
brak danych naprawczych



Download:
Uwaga! Linki nie zakodowane tylko dla zarejestrowanych użytkowników!

Nie masz konta? Zarejestruj się za darmo!
----------------
Links are not encoded only for registered users only! Plese login or register!



HASŁO:
rico
Użytkownik VIP

ghwaySuper Uploader

#3 | Dodany: 27 Styczeń 2012 01:06

ścigana / Haywire (2012) CAM.READNFO.XViD-INFERNO

Dane techniczne:
Size: 841158458 bytes (802.19 MiB), duration: 01:26:46, avg.bitrate: 1293 kb/s
Audio: mp3, 44100 Hz, stereo, 128 kb/s
Video: mpeg4, yuv420p, 640x272, 25.00 fps(r)


Download - 1 link:

Uploaded
Uwaga! Linki nie zakodowane tylko dla zarejestrowanych użytkowników!

Nie masz konta? Zarejestruj się za darmo!
----------------
Links are not encoded only for registered users only! Plese login or register!
Użytkownik VIP

BoobySingerUżytkownik

#4 | Dodany: 27 Styczeń 2012 18:00

Uwaga! Linki nie zakodowane tylko dla zarejestrowanych użytkowników!

Nie masz konta? Zarejestruj się za darmo!
----------------
Links are not encoded only for registered users only! Plese login or register!
Użytkownik VIP

NieBedeCieBilUżytkownik

#5 | Dodany: 2 Kwiecień 2012 21:47

ścigana (2012) NAPISY PL ! RMVB !


Opis uploadu :


Rozmiar filmu : 301mb
Zawartość archiwum : 1 plik rmvb / 1 plik Info.
Język filmu : NAPISY PL
Hasło : Brak
Dane naprawcze : Brak


Download :

http://download.hellshare.pl/s2011-rar/6476180/


Hasło / Pass :

Brak hasła / No pass
Dodaje tylko sprawdzony upload !
Użytkownik VIP

bialas666Użytkownik

#6 | Dodany: 14 Październik 2012 13:35

ścigana / Haywire (2011) PL.BRRip.XviD-B89

~~~ Opis Filmu / Movie Description ~~~


gatunek: Thriller, Akcja, Szpiegowski
premiera: 7 listopada 2011 (świat) 19 stycznia 2012 - kino
reżyseria: Steven Soderbergh
scenariusz: Lem Dobbs

Mallory Kane (Gina Carano) jest piękną, tajną agentką CIA, przyjmującą jedynie zlecenia najwyższej wagi, ekstremalnie tajne i trudne, na które władze nie mogą zezwolić i o których przywódcy pa?stw nie powinni wiedzieć. Po udanej misji uwolnienia zakładników z Barcelony, Mallory dostaje kolejne zadanie w Dublinie. Gdy operacja nie przebiega po jej myśli, dowiaduje się, że została przechytrzona i musi użyć wszystkich swoich umiejętności, sztuczek i możliwości ucieczki, by nie zostać schwytaną w międzynarodowym polowaniu. Wraca do Stanów Zjednoczonych by ochronić swoją rodzinę i zemścić się na tych, którzy ją zdradzili


~~~ Dane Techniczne / Technical Data ~~~

Format            : AVI at 1.094 Kb/s
Length            : 697 MB for 1h 29 min. 4s 200ms

Video #0          : MPEG-4 Visual at 956 Kb/s
Aspect            : 640 x 272 (2.353) at 25.000 fps

Audio #0          : MPEG Audio at 128 Kb/s
Infos             : 2 kanały, 48,0 KHz


~~~ Pobierz / Download ~~~

~~ Hellshare.pl ~~
http://download.hellshare.pl/haywire-2011-pl-brrip-xvid-b89-avi/9370671/


~~ Egofiles.com ~~
http://egofiles.com/zxcSlE8gtyzOpR7x/Haywire.2011.PL.BRRip.XviD-B89.avi

Informacje

Jeżeli chcesz skomentować artykuł musisz być zarejestrowany na stronie.